<?xml version="1.0" standalone="no"?>
<!DOCTYPE svg PUBLIC "-//W3C//DTD SVG 1.1//EN" "http://www.w3.org/Graphics/SVG/1.1/DTD/svg11.dtd" >
<svg xmlns="http://www.w3.org/2000/svg">
<metadata>Generated by IcoMoon</metadata>
<defs>
<font id="icomoon" horiz-adv-x="1024">
<font-face units-per-em="1024" ascent="960" descent="-64" />
<missing-glyph horiz-adv-x="1024" />
<glyph unicode="&#x20;" horiz-adv-x="512" d="" />
<glyph unicode="&#xe900;" glyph-name="sync" d="M162.133 379.733v0c-4.267 0-6.4 2.133-8.533 4.267l-130.133 194.133c-4.267 4.267-2.133 10.667 2.133 14.933s10.667 2.133 14.933-2.133l121.6-183.467 142.933 162.133c4.267 4.267 10.667 4.267 14.933 0s4.267-10.667 0-14.933l-149.333-170.667c-2.133-2.133-6.4-4.267-8.533-4.267zM162.133 369.067c-8.533 0-12.8 4.267-17.067 6.4l-132.267 196.267c-2.133 2.133-4.267 6.4-4.267 10.667 0 6.4 2.133 12.8 8.533 17.067 4.267 4.267 8.533 6.4 12.8 6.4v0c6.4 0 12.8-2.133 17.067-8.533l115.2-172.8 134.4 151.467c8.533 8.533 21.333 8.533 29.867 0s8.533-21.333 0-29.867l-149.333-170.667c-2.133-2.133-8.533-6.4-14.933-6.4zM162.133 390.4v0c0 0 0 0 0 0v0zM32 584.533v0c0 0 0 0 0 0zM32 584.533c0 0 0 0 0 0s0 0 0 0v0zM32 586.667v0c0-2.133 0-2.133 0 0zM573.867 32c-166.4 0-313.6 96-381.867 245.333-2.133 6.4 0 10.667 6.4 14.933 6.4 2.133 10.667 0 14.933-6.4 66.133-147.2 213.333-238.933 377.6-232.533 219.733 8.533 392.533 194.133 384 416-4.267 106.667-49.067 206.933-128 279.467s-181.333 110.933-288 106.667c-113.067-4.267-221.867-55.467-294.4-142.933s-104.533-200.533-89.6-320c0-6.4-4.267-10.667-8.533-12.8-6.4 0-10.667 4.267-12.8 8.533-14.933 128 17.067 247.467 96 339.2 76.8 91.733 189.867 145.067 309.333 149.333 113.067 4.267 219.733-36.267 302.933-113.067s130.133-181.333 134.4-294.4c8.533-232.533-174.933-428.8-407.467-437.333-4.267 0-10.667 0-14.933 0zM573.867 21.333c-170.667 0-320 96-392.533 251.733-2.133 8.533-2.133 19.2 10.667 27.733l2.133 2.133c10.667 4.267 19.2 0 27.733-10.667 66.133-145.067 209.067-234.667 369.067-228.267 213.333 8.533 381.867 189.867 373.333 405.333-4.267 104.533-49.067 202.667-123.733 273.067-76.8 70.4-177.067 108.8-279.467 104.533-113.067-6.4-217.6-57.6-288-140.8-70.4-85.333-102.4-196.267-87.467-311.467 0-10.667-4.267-19.2-14.933-23.467l-2.133-2.133h-2.133c-8.533 0-17.067 6.4-21.333 14.933v4.267c-17.067 132.267 17.067 253.867 96 345.6 76.8 91.733 194.133 149.333 317.867 153.6 115.2 4.267 224-36.267 311.467-115.2 85.333-78.933 134.4-185.6 138.667-300.8 8.533-238.933-179.2-439.467-418.133-448h-17.067zM202.667 281.6c0 0 0 0 0 0 55.467-125.867 166.4-211.2 298.667-232.533-130.133 23.467-241.067 108.8-298.667 232.533 0 0 0 0 0 0zM164.267 392.533c0 0 0 0 0 0s0 0 0 0c-14.933 113.067 12.8 221.867 78.933 309.333-66.133-85.333-91.733-192-78.933-309.333z" />
<glyph unicode="&#xe901;" glyph-name="fire" d="M507.733-42.667c-140.8 0-260.267 87.467-302.933 221.867-42.667 130.133 2.133 266.667 115.2 345.6 2.133 2.133 6.4 2.133 10.667 2.133 4.267-2.133 6.4-4.267 6.4-8.533 8.533-40.533 25.6-74.667 51.2-108.8 100.267 121.6 98.133 343.467-8.533 484.267-2.133 4.267-2.133 8.533 0 12.8s8.533 4.267 12.8 4.267c302.933-119.467 458.667-460.8 411.733-704-32-157.867-138.667-249.6-296.533-249.6zM317.867 497.067c-113.067-89.6-123.733-219.733-93.867-313.6 40.533-125.867 151.467-206.933 283.733-206.933 147.2 0 245.333 85.333 273.067 232.533 42.667 226.133-93.867 539.733-366.933 665.6 93.867-151.467 87.467-373.333-21.333-490.667-2.133-2.133-4.267-4.267-8.533-4.267-2.133 0-6.4 2.133-8.533 4.267-27.733 38.4-46.933 74.667-57.6 113.067zM507.733-53.333c-145.067 0-268.8 89.6-313.6 228.267-44.8 136.533 2.133 277.333 119.467 358.4 4.267 4.267 10.667 4.267 17.067 4.267h2.133l2.133-2.133c2.133-2.133 10.667-6.4 12.8-17.067 6.4-32 19.2-61.867 40.533-91.733 89.6 121.6 83.2 328.533-17.067 460.8-4.267 8.533-4.267 17.067 0 23.467 4.267 10.667 17.067 10.667 21.333 10.667h4.267c309.333-121.6 465.067-469.333 418.133-716.8-34.133-164.267-145.067-258.133-307.2-258.133zM311.467 477.867c-98.133-85.333-104.533-204.8-76.8-290.133 38.4-121.6 147.2-200.533 273.067-200.533 140.8 0 236.8 81.067 262.4 224 38.4 206.933-76.8 503.467-330.667 637.867 78.933-155.733 64-360.533-40.533-473.6-2.133-2.133-8.533-8.533-17.067-8.533-6.4 0-12.8 4.267-17.067 6.4-23.467 40.533-40.533 72.533-53.333 104.533zM390.4 898.133l27.733-12.8c283.733-130.133 416-454.4 373.333-676.267-6.4-38.4-19.2-72.533-36.267-102.4 17.067 29.867 29.867 66.133 38.4 104.533 46.933 236.8-104.533 569.6-403.2 689.067 0 0-2.133 0-2.133 0s0 0 2.133-2.133c0 0 0 0 0 0zM384 390.4c0 0 0 0 0 0 2.133 0 2.133 2.133 4.267 2.133l-8.533 10.667c-27.733 36.267-44.8 72.533-53.333 113.067 0 0 0 0 0 0s-2.133 0-2.133-2.133l4.267-14.933c8.533-34.133 27.733-70.4 55.467-108.8 0 0 0 0 0 0zM326.4 516.267v0 0zM326.4 516.267c0 0 0 0 0 0s0 0 0 0v0zM326.4 516.267c0 0 0 0 0 0s0 0 0 0 0 0 0 0zM507.733 78.933c-55.467 0-100.267 38.4-110.933 91.733 0 4.267 0 6.4 2.133 10.667 2.133 2.133 6.4 4.267 10.667 2.133 25.6-6.4 66.133 14.933 93.867 51.2 25.6 32 32 68.267 17.067 93.867-2.133 4.267-2.133 6.4 0 10.667s6.4 4.267 8.533 4.267c64 0 91.733-76.8 91.733-151.467-2.133-64-51.2-113.067-113.067-113.067zM422.4 160c12.8-36.267 46.933-59.733 85.333-59.733 49.067 0 89.6 40.533 91.733 91.733 0 40.533-10.667 110.933-53.333 125.867 8.533-29.867 0-66.133-25.6-98.133-23.467-29.867-64-57.6-98.133-59.733zM507.733 68.267c-59.733 0-108.8 40.533-121.6 100.267 0 6.4 0 10.667 2.133 17.067l2.133 2.133c4.267 4.267 12.8 8.533 21.333 4.267 19.2-4.267 55.467 12.8 81.067 46.933 23.467 27.733 29.867 59.733 17.067 81.067-4.267 8.533-4.267 12.8 0 21.333 2.133 4.267 6.4 10.667 17.067 10.667 70.4 0 102.4-81.067 102.4-162.133 0-68.267-55.467-121.6-121.6-121.6zM507.733 89.6c55.467 0 100.267 42.667 102.4 100.267-2.133-55.467-46.933-100.267-102.4-100.267zM507.733 89.6c0 0 0 0 0 0s0 0 0 0zM407.467 170.667c10.667-46.933 51.2-78.933 100.267-81.067-42.667 0-81.067 27.733-96 66.133l-4.267 14.933zM437.333 151.467c12.8-25.6 40.533-40.533 70.4-40.533 42.667 0 78.933 36.267 81.067 81.067 0 29.867-6.4 78.933-27.733 104.533 0-27.733-10.667-57.6-32-83.2-19.2-25.6-55.467-53.333-91.733-61.867zM407.467 172.8c0 0 0-2.133 0-2.133s0 0 0 0h14.933c32 2.133 70.4 29.867 89.6 55.467 12.8 17.067 21.333 36.267 25.6 53.333-4.267-17.067-12.8-34.133-25.6-51.2-29.867-38.4-74.667-61.867-104.533-55.467zM537.6 332.8l12.8-4.267c57.6-19.2 59.733-115.2 59.733-136.533 0 0 0 0 0 0 0 66.133-23.467 134.4-72.533 140.8z" />
<glyph unicode="&#xe902;" glyph-name="robot" d="M750.933 499.2h-471.467c-44.8 0-81.067 36.267-81.067 81.067v234.667c0 44.8 36.267 81.067 81.067 81.067h471.467c44.8 0 81.067-36.267 81.067-81.067v-234.667c0-44.8-36.267-81.067-81.067-81.067zM279.467 853.333c-21.333 0-38.4-17.067-38.4-38.4v-234.667c0-21.333 17.067-38.4 38.4-38.4h471.467c21.333 0 38.4 17.067 38.4 38.4v234.667c0 21.333-17.067 38.4-38.4 38.4h-471.467zM358.4 616.533c-44.8 0-81.067 36.267-81.067 81.067s36.267 81.067 81.067 81.067c44.8 0 81.067-36.267 81.067-81.067s-36.267-81.067-81.067-81.067zM358.4 736c-21.333 0-38.4-17.067-38.4-38.4s17.067-38.4 38.4-38.4c21.333 0 38.4 17.067 38.4 38.4s-17.067 38.4-38.4 38.4zM672 616.533c-44.8 0-81.067 36.267-81.067 81.067s36.267 81.067 81.067 81.067 81.067-36.267 81.067-81.067c0-44.8-36.267-81.067-81.067-81.067zM672 736c-21.333 0-38.4-17.067-38.4-38.4s17.067-38.4 38.4-38.4 38.4 17.067 38.4 38.4c0 21.333-17.067 38.4-38.4 38.4zM573.867 420.267h-117.333c-12.8 0-21.333 8.533-21.333 21.333s8.533 21.333 21.333 21.333h117.333c12.8 0 21.333-8.533 21.333-21.333s-8.533-21.333-21.333-21.333zM573.867 343.467h-117.333c-12.8 0-21.333 8.533-21.333 21.333s8.533 21.333 21.333 21.333h117.333c12.8 0 21.333-8.533 21.333-21.333s-8.533-21.333-21.333-21.333zM750.933-10.667h-471.467c-10.667 0-19.2 6.4-21.333 17.067l-57.6 275.2c-2.133 6.4 0 12.8 4.267 17.067s10.667 8.533 17.067 8.533h588.8c6.4 0 12.8-2.133 17.067-8.533 4.267-4.267 6.4-10.667 4.267-17.067l-59.733-275.2c-2.133-10.667-10.667-17.067-21.333-17.067zM296.533 32h437.333l51.2 232.533h-537.6l49.067-232.533zM804.267 151.467l-25.6 34.133 125.867 98.133-17.067 76.8 42.667 8.533 19.2-89.6c2.133-8.533-2.133-17.067-8.533-21.333l-136.533-106.667zM868.267 341.333c-36.267 0-70.4 17.067-96 46.933-8.533 8.533-6.4 23.467 2.133 29.867 8.533 8.533 23.467 6.4 29.867-2.133 17.067-19.2 38.4-29.867 61.867-29.867 42.667 0 76.8 34.133 76.8 76.8 0 19.2-4.267 34.133-14.933 46.933-6.4 8.533-4.267 23.467 4.267 29.867s23.467 4.267 29.867-4.267c14.933-21.333 23.467-44.8 23.467-72.533 2.133-66.133-53.333-121.6-117.333-121.6zM228.267 151.467l-138.667 106.667c-6.4 4.267-10.667 12.8-8.533 21.333l21.333 89.6 40.533-10.667-19.2-76.8 128-98.133-23.467-32zM162.133 343.467c-64 0-119.467 55.467-119.467 119.467 0 27.733 8.533 53.333 23.467 72.533 8.533 8.533 21.333 10.667 29.867 2.133s10.667-21.333 2.133-29.867c-8.533-10.667-14.933-25.6-14.933-42.667 0-42.667 34.133-76.8 76.8-76.8 23.467 0 46.933 10.667 61.867 29.867 6.4 8.533 21.333 10.667 29.867 2.133 8.533-6.4 10.667-21.333 2.133-29.867-21.333-29.867-55.467-46.933-91.733-46.933zM652.8-10.667h-275.2c-12.8 0-21.333 8.533-21.333 21.333v157.867c0 12.8 8.533 21.333 21.333 21.333h275.2c12.8 0 21.333-8.533 21.333-21.333v-157.867c0-12.8-8.533-21.333-21.333-21.333zM398.933 32h232.533v115.2h-232.533v-115.2z" />
<glyph unicode="&#xe903;" glyph-name="paint" d="M686.933-8.533c-66.133 0-125.867 25.6-172.8 72.533l-172.8 172.8c-12.8 12.8-23.467 4.267-27.733 0s-12.8-14.933 0-27.733c40.533-40.533 40.533-104.533 0-145.067s-104.533-40.533-145.067 0v0 0c-91.733 91.733-142.933 215.467-142.933 345.6s51.2 253.867 142.933 345.6c189.867 189.867 501.333 189.867 691.2 0 91.733-91.733 142.933-215.467 142.933-345.6s-51.2-253.867-142.933-345.6c-46.933-46.933-106.667-72.533-172.8-72.533zM328.533 285.867c14.933 0 29.867-6.4 42.667-19.2l172.8-172.8c38.4-38.4 89.6-59.733 142.933-59.733s104.533 21.333 142.933 59.733c85.333 85.333 132.267 196.267 132.267 315.733s-46.933 230.4-132.267 315.733c-174.933 174.933-456.533 174.933-631.467 0-85.333-85.333-132.267-196.267-132.267-315.733s46.933-230.4 132.267-315.733v0c23.467-23.467 61.867-23.467 85.333 0 10.667 10.667 17.067 25.6 17.067 42.667 0 14.933-6.4 32-17.067 42.667-27.733 27.733-21.333 66.133 0 87.467 10.667 10.667 27.733 19.2 44.8 19.2zM686.933 529.067c-21.333 0-42.667 8.533-57.6 23.467s-23.467 36.267-23.467 57.6 8.533 42.667 23.467 57.6c29.867 29.867 85.333 29.867 115.2 0 32-32 32-83.2 0-115.2v0c-14.933-14.933-36.267-23.467-57.6-23.467zM729.6 567.467v0 0zM686.933 648.533c-10.667 0-21.333-4.267-27.733-10.667s-10.667-17.067-10.667-27.733 4.267-19.2 10.667-27.733c14.933-14.933 40.533-14.933 55.467 0v0c14.933 14.933 14.933 40.533 0 55.467-8.533 6.4-17.067 10.667-27.733 10.667zM797.867 347.733c-34.133 0-61.867 27.733-61.867 61.867s27.733 61.867 61.867 61.867c34.133 0 61.867-27.733 61.867-61.867s-27.733-61.867-61.867-61.867zM797.867 428.8c-10.667 0-19.2-8.533-19.2-19.2s8.533-19.2 19.2-19.2 19.2 8.533 19.2 19.2-8.533 19.2-19.2 19.2zM686.933 106.667c-25.6 0-53.333 10.667-72.533 29.867-40.533 40.533-40.533 104.533 0 145.067s104.533 40.533 145.067 0 40.533-104.533 0-145.067c-19.2-19.2-46.933-29.867-72.533-29.867zM686.933 268.8c-14.933 0-29.867-6.4-42.667-17.067-23.467-23.467-23.467-61.867 0-85.333s61.867-23.467 85.333 0c23.467 23.467 23.467 61.867 0 85.333-12.8 12.8-27.733 17.067-42.667 17.067zM441.6 573.867c-21.333 0-42.667 8.533-57.6 23.467s-23.467 36.267-23.467 57.6c0 21.333 8.533 42.667 23.467 57.6 32 32 83.2 32 115.2 0v0c32-32 32-83.2 0-115.2-14.933-14.933-36.267-23.467-57.6-23.467zM441.6 693.333c-10.667 0-19.2-4.267-27.733-10.667-6.4-6.4-10.667-17.067-10.667-27.733s4.267-19.2 10.667-27.733c14.933-14.933 40.533-14.933 55.467 0s14.933 40.533 0 55.467c-8.533 6.4-17.067 10.667-27.733 10.667z" />
<glyph unicode="&#xe904;" glyph-name="email-sent" d="M347.733 232.533h-251.733c-46.933 0-83.2 36.267-83.2 83.2v462.933c0 46.933 36.267 83.2 83.2 83.2h753.067c46.933 0 83.2-36.267 83.2-83.2v-253.867c0-12.8-8.533-21.333-21.333-21.333s-21.333 8.533-21.333 21.333v253.867c0 21.333-19.2 40.533-40.533 40.533h-753.067c-21.333 0-40.533-19.2-40.533-40.533v-462.933c0-21.333 19.2-40.533 40.533-40.533h251.733c12.8 0 21.333-8.533 21.333-21.333s-8.533-21.333-21.333-21.333zM473.6 462.933c-4.267 0-8.533 2.133-12.8 4.267l-418.133 334.933c-10.667 8.533-10.667 21.333-4.267 29.867s21.333 10.667 29.867 4.267l405.333-324.267 405.333 324.267c8.533 6.4 23.467 6.4 29.867-4.267 6.4-8.533 6.4-23.467-4.267-29.867l-418.133-334.933c-4.267-2.133-8.533-4.267-12.8-4.267zM746.667-19.2c-2.133 0-6.4 0-8.533 2.133-8.533 4.267-12.8 10.667-12.8 19.2v104.533h-273.067c-12.8 0-21.333 8.533-21.333 21.333v209.067c0 12.8 8.533 21.333 21.333 21.333h273.067v104.533c0 8.533 4.267 17.067 12.8 19.2s17.067 2.133 23.467-4.267l251.733-230.4c4.267-4.267 6.4-10.667 6.4-14.933s-2.133-10.667-6.4-14.933l-251.733-230.4c-4.267-4.267-10.667-6.4-14.933-6.4zM473.6 149.333h273.067c12.8 0 21.333-8.533 21.333-21.333v-76.8l198.4 181.333-198.4 181.333v-76.8c0-12.8-8.533-21.333-21.333-21.333h-273.067v-166.4z" />
<glyph unicode="&#xe905;" glyph-name="email-reply" d="M307.2 232.533h-211.2c-46.933 0-83.2 36.267-83.2 83.2v460.8c0 46.933 36.267 83.2 83.2 83.2h753.067c46.933 0 83.2-36.267 83.2-83.2v-296.533c0-12.8-8.533-21.333-21.333-21.333s-21.333 8.533-21.333 21.333v296.533c0 21.333-19.2 40.533-40.533 40.533h-753.067c-21.333 0-40.533-19.2-40.533-40.533v-460.8c0-21.333 19.2-40.533 40.533-40.533h211.2c12.8 0 21.333-8.533 21.333-21.333s-8.533-21.333-21.333-21.333zM473.6 462.933c-4.267 0-8.533 2.133-12.8 4.267l-418.133 334.933c-10.667 8.533-10.667 21.333-4.267 29.867s21.333 10.667 29.867 4.267l405.333-324.267 405.333 324.267c8.533 6.4 23.467 6.4 29.867-4.267 6.4-8.533 6.4-23.467-4.267-29.867l-418.133-334.933c-4.267-2.133-8.533-4.267-12.8-4.267zM998.4-40.533c-10.667 0-19.2 6.4-21.333 17.067-2.133 8.533-42.667 224-334.933 234.667v-61.867c0-8.533-4.267-14.933-12.8-19.2-6.4-4.267-14.933-2.133-23.467 2.133l-185.6 145.067c-4.267 4.267-8.533 10.667-8.533 17.067s2.133 12.8 8.533 17.067l187.733 147.2c6.4 4.267 14.933 6.4 23.467 2.133 6.4-4.267 12.8-10.667 12.8-19.2v-61.867c373.333-14.933 377.6-394.667 377.6-398.933-2.133-10.667-10.667-21.333-23.467-21.333 2.133 0 0 0 0 0zM620.8 253.867c172.8 0 273.067-66.133 328.533-132.267-36.267 100.267-123.733 215.467-328.533 215.467-12.8 0-21.333 8.533-21.333 21.333v38.4l-132.267-102.4 132.267-102.4v40.533c0 12.8 8.533 21.333 21.333 21.333z" />
<glyph unicode="&#xe906;" glyph-name="cloud" d="M213.333 138.667c-8.533 0-85.333 2.133-136.533 53.333-29.867 29.867-44.8 70.4-44.8 119.467 0 51.2 23.467 100.267 64 132.267 34.133 27.733 78.933 42.667 123.733 38.4 14.933 149.333 142.933 264.533 296.533 264.533 113.067 0 217.6-64 268.8-162.133 55.467-2.133 108.8-23.467 149.333-61.867 44.8-42.667 68.267-98.133 68.267-160 0-200.533-202.667-224-204.8-224h-584.533c0 0 0 0 0 0zM202.667 439.467c-29.867 0-59.733-10.667-83.2-29.867-29.867-23.467-46.933-59.733-46.933-98.133s10.667-68.267 34.133-89.6c40.533-40.533 106.667-40.533 106.667-40.533h584.533c0 0 162.133 19.2 162.133 181.333 0 49.067-19.2 93.867-55.467 128s-83.2 51.2-132.267 51.2c-8.533 0-17.067 4.267-19.2 12.8-42.667 91.733-134.4 149.333-236.8 149.333-138.667 0-251.733-108.8-260.267-247.467 0-6.4-4.267-12.8-8.533-14.933-4.267-4.267-10.667-4.267-17.067-4.267-8.533 2.133-17.067 2.133-27.733 2.133z" />
<glyph unicode="&#xe907;" glyph-name="speaker" d="M494.933 36.267c-2.133 0-6.4 0-8.533 2.133-106.667 53.333-172.8 160-172.8 279.467v343.467c0 12.8 8.533 21.333 21.333 21.333s21.333-8.533 21.333-21.333v-343.467c0-102.4 57.6-196.267 147.2-241.067 10.667-4.267 14.933-17.067 8.533-27.733-2.133-8.533-8.533-12.8-17.067-12.8zM917.333 398.933h-19.2c-12.8 0-21.333 8.533-21.333 21.333v160c0 12.8 8.533 21.333 21.333 21.333h19.2c44.8 0 81.067-36.267 81.067-81.067v-40.533c0-44.8-36.267-81.067-81.067-81.067zM919.467 558.933v-117.333c19.2 2.133 36.267 17.067 36.267 38.4v40.533c0 21.333-17.067 36.267-36.267 38.4zM896 155.733c-2.133 0-6.4 0-8.533 2.133-14.933 6.4-27.733 12.8-42.667 19.2-157.867 70.4-307.2 138.667-631.467 138.667h-38.4c-78.933 0-142.933 64-142.933 142.933v81.067c0 78.933 64 142.933 142.933 142.933h38.4c334.933 0 484.267 70.4 644.267 145.067l29.867 14.933c6.4 2.133 14.933 2.133 21.333-2.133 4.267-4.267 8.533-12.8 8.533-19.2v-644.267c0-6.4-4.267-14.933-10.667-17.067-2.133-2.133-6.4-4.267-10.667-4.267zM174.933 640c-55.467 0-100.267-44.8-100.267-100.267v-81.067c0-55.467 44.8-100.267 100.267-100.267h38.4c332.8 0 486.4-68.267 648.533-142.933 4.267-2.133 8.533-4.267 12.8-6.4v578.133c-162.133-74.667-317.867-147.2-661.333-147.2h-38.4z" />
<glyph unicode="&#xe908;" glyph-name="gift" d="M966.4 445.867h-913.067c-12.8 0-21.333 8.533-21.333 21.333v157.867c0 12.8 8.533 21.333 21.333 21.333h913.067c12.8 0 21.333-8.533 21.333-21.333v-157.867c0-12.8-8.533-21.333-21.333-21.333zM74.667 488.533h870.4v115.2h-870.4v-115.2zM928-32h-834.133c-12.8 0-21.333 8.533-21.333 21.333v475.733c0 12.8 8.533 21.333 21.333 21.333h834.133c12.8 0 21.333-8.533 21.333-21.333v-475.733c0-12.8-8.533-21.333-21.333-21.333zM115.2 10.667h791.467v433.067h-791.467v-433.067zM349.867 625.067h42.667v-635.733h-42.667v635.733zM627.2 625.067h42.667v-635.733h-42.667v635.733zM509.867 608c-6.4 0-10.667 2.133-14.933 6.4s-6.4 12.8-6.4 19.2c4.267 19.2 46.933 192 91.733 234.667 46.933 46.933 123.733 46.933 170.667 0 44.8-49.067 44.8-123.733-2.133-170.667 0 0 0 0 0 0-40.533-40.533-215.467-83.2-234.667-89.6 0 0-2.133 0-4.267 0zM665.6 859.733c-19.2 0-40.533-8.533-55.467-23.467-23.467-21.333-51.2-110.933-70.4-179.2 68.267 19.2 157.867 46.933 179.2 68.267 29.867 29.867 29.867 81.067 2.133 110.933-14.933 17.067-36.267 23.467-55.467 23.467zM733.867 712.533v0 0zM509.867 608c-2.133 0-4.267 0-4.267 0-19.2 4.267-192 46.933-234.667 89.6v0c-46.933 46.933-46.933 123.733 0 170.667s123.733 46.933 170.667 0c40.533-40.533 83.2-215.467 89.6-234.667 2.133-6.4 0-14.933-6.4-19.2-4.267-4.267-8.533-6.4-14.933-6.4zM300.8 727.467c21.333-21.333 110.933-49.067 179.2-68.267-19.2 68.267-46.933 157.867-68.267 179.2-29.867 29.867-81.067 29.867-110.933 0s-29.867-81.067 0-110.933v0z" />
<glyph unicode="&#xe909;" glyph-name="table" d="M932.267-38.4h-842.667c-34.133 0-64 27.733-64 64v842.667c0 34.133 27.733 64 64 64h840.533c34.133 0 64-27.733 64-64v-840.533c0-36.267-27.733-66.133-61.867-66.133zM89.6 887.467c-10.667 0-21.333-8.533-21.333-21.333v-840.533c0-10.667 8.533-21.333 21.333-21.333h840.533c10.667 0 21.333 8.533 21.333 21.333v842.667c0 10.667-8.533 21.333-21.333 21.333h-840.533zM488.533 908.8h42.667v-925.867h-42.667v925.867zM49.067 467.2h925.867v-42.667h-925.867v42.667z" />
<glyph unicode="&#xe90a;" glyph-name="twitter-filled" d="M1013.333 661.333c-34.133-14.933-64-17.067-96 0 40.533 23.467 42.667 40.533 57.6 87.467-38.4-21.333-78.933-38.4-123.733-46.933-36.267 38.4-85.333 61.867-142.933 61.867-106.667 0-194.133-87.467-194.133-194.133 0-14.933 2.133-29.867 4.267-44.8-162.133 8.533-305.067 85.333-401.067 202.667-17.067-27.733-25.6-61.867-25.6-98.133 0-68.267 34.133-128 87.467-162.133-32 0-61.867 10.667-87.467 23.467 0 0 0-2.133 0-2.133 0-93.867 66.133-172.8 155.733-192-27.733-8.533-57.6-8.533-87.467-4.267 25.6-76.8 96-134.4 181.333-134.4-83.2-66.133-187.733-91.733-288-81.067 85.333-55.467 187.733-87.467 298.667-87.467 358.4 0 554.667 296.533 554.667 554.667 0 8.533 0 17.067 0 25.6 34.133 27.733 78.933 53.333 106.667 91.733z" />
<glyph unicode="&#xe90b;" glyph-name="linkedin-filled" d="M266.667 10.667h-213.333v556.8h213.333v-556.8zM157.867 652.8v0c-66.133 0-108.8 51.2-108.8 106.667 0 57.6 42.667 102.4 108.8 102.4s106.667-46.933 108.8-104.533c2.133-55.467-40.533-104.533-108.8-104.533zM652.8 396.8c-46.933 0-85.333-38.4-85.333-85.333v-300.8h-213.333c0 0 2.133 514.133 0 556.8h213.333v-64c0 0 66.133 61.867 168.533 61.867 128 0 217.6-91.733 217.6-270.933v-285.867h-213.333v302.933c-2.133 46.933-40.533 85.333-87.467 85.333z" />
<glyph unicode="&#xe90c;" glyph-name="paragraph" d="M469.333 426.667h-64c-140.8 0-256 115.2-256 256s115.2 256 256 256h362.667c12.8 0 21.333-8.533 21.333-21.333s-8.533-21.333-21.333-21.333h-362.667c-117.333 0-213.333-96-213.333-213.333s96-213.333 213.333-213.333h64c12.8 0 21.333-8.533 21.333-21.333s-8.533-21.333-21.333-21.333zM469.333-42.667c-12.8 0-21.333 8.533-21.333 21.333v938.667c0 12.8 8.533 21.333 21.333 21.333s21.333-8.533 21.333-21.333v-938.667c0-12.8-8.533-21.333-21.333-21.333zM597.333-42.667c-12.8 0-21.333 8.533-21.333 21.333v938.667c0 12.8 8.533 21.333 21.333 21.333s21.333-8.533 21.333-21.333v-938.667c0-12.8-8.533-21.333-21.333-21.333z" />
<glyph unicode="&#xe90d;" glyph-name="paperpen" d="M70.4-25.6c-6.4 0-10.667 2.133-14.933 6.4s-6.4 12.8-6.4 19.2l59.733 332.8c0 4.267 2.133 8.533 6.4 10.667l573.867 571.733c23.467 23.467 66.133 23.467 89.6 0l211.2-211.2c12.8-12.8 19.2-27.733 19.2-44.8s-6.4-34.133-19.2-44.8l-573.867-573.867c-2.133-2.133-6.4-4.267-10.667-6.4l-332.8-59.733h-2.133zM149.333 315.733l-53.333-294.4 294.4 53.333 569.6 569.6c8.533 8.533 8.533 21.333 0 29.867l-211.2 211.2c-8.533 8.533-21.333 8.533-29.867 0l-569.6-569.6zM234.667 230.4c-6.4 0-10.667 2.133-14.933 6.4-8.533 8.533-8.533 21.333 0 29.867l588.8 588.8c8.533 8.533 21.333 8.533 29.867 0s8.533-21.333 0-29.867l-588.8-588.8c-2.133-4.267-8.533-6.4-14.933-6.4zM326.4 138.667c-6.4 0-10.667 2.133-14.933 6.4-8.533 8.533-8.533 21.333 0 29.867l588.8 588.8c8.533 8.533 21.333 8.533 29.867 0s8.533-21.333 0-29.867l-588.8-588.8c-4.267-4.267-10.667-6.4-14.933-6.4zM401.067 34.133c-6.4 0-10.667 2.133-14.933 6.4l-270.933 270.933c-8.533 8.533-8.533 21.333 0 29.867s21.333 8.533 29.867 0l270.933-270.933c8.533-8.533 8.533-21.333 0-29.867-4.267-4.267-8.533-6.4-14.933-6.4zM219.733 4.267c-6.4 0-10.667 2.133-14.933 6.4l-119.467 119.467c-8.533 8.533-8.533 21.333 0 29.867s21.333 8.533 29.867 0l121.6-121.6c8.533-8.533 8.533-21.333 0-29.867-6.4-2.133-10.667-4.267-17.067-4.267z" />
<glyph unicode="&#xe90e;" glyph-name="align" d="M960 704h-853.333c-12.8 0-21.333 8.533-21.333 21.333s8.533 21.333 21.333 21.333h853.333c12.8 0 21.333-8.533 21.333-21.333s-8.533-21.333-21.333-21.333zM789.333 576h-512c-12.8 0-21.333 8.533-21.333 21.333s8.533 21.333 21.333 21.333h512c12.8 0 21.333-8.533 21.333-21.333s-8.533-21.333-21.333-21.333zM960 448h-853.333c-12.8 0-21.333 8.533-21.333 21.333s8.533 21.333 21.333 21.333h853.333c12.8 0 21.333-8.533 21.333-21.333s-8.533-21.333-21.333-21.333zM789.333 320h-512c-12.8 0-21.333 8.533-21.333 21.333s8.533 21.333 21.333 21.333h512c12.8 0 21.333-8.533 21.333-21.333s-8.533-21.333-21.333-21.333zM960 192h-853.333c-12.8 0-21.333 8.533-21.333 21.333s8.533 21.333 21.333 21.333h853.333c12.8 0 21.333-8.533 21.333-21.333s-8.533-21.333-21.333-21.333zM789.333 64h-512c-12.8 0-21.333 8.533-21.333 21.333s8.533 21.333 21.333 21.333h512c12.8 0 21.333-8.533 21.333-21.333s-8.533-21.333-21.333-21.333z" />
<glyph unicode="&#xe90f;" glyph-name="docs" d="M874.667-42.667h-725.333c-36.267 0-64 27.733-64 64v810.667c0 36.267 27.733 64 64 64h213.333c12.8 0 21.333-8.533 21.333-21.333s-8.533-21.333-21.333-21.333h-213.333c-12.8 0-21.333-8.533-21.333-21.333v-810.667c0-12.8 8.533-21.333 21.333-21.333h725.333c12.8 0 21.333 8.533 21.333 21.333v810.667c0 12.8-8.533 21.333-21.333 21.333h-213.333c-12.8 0-21.333 8.533-21.333 21.333s8.533 21.333 21.333 21.333h213.333c36.267 0 64-27.733 64-64v-810.667c0-36.267-27.733-64-64-64zM512 597.333h-234.667c-12.8 0-21.333 8.533-21.333 21.333s8.533 21.333 21.333 21.333h234.667c12.8 0 21.333-8.533 21.333-21.333s-8.533-21.333-21.333-21.333zM746.667 490.667h-469.333c-12.8 0-21.333 8.533-21.333 21.333s8.533 21.333 21.333 21.333h469.333c12.8 0 21.333-8.533 21.333-21.333s-8.533-21.333-21.333-21.333zM746.667 384h-469.333c-12.8 0-21.333 8.533-21.333 21.333s8.533 21.333 21.333 21.333h469.333c12.8 0 21.333-8.533 21.333-21.333s-8.533-21.333-21.333-21.333zM746.667 277.333h-469.333c-12.8 0-21.333 8.533-21.333 21.333s8.533 21.333 21.333 21.333h469.333c12.8 0 21.333-8.533 21.333-21.333s-8.533-21.333-21.333-21.333zM746.667 170.667h-469.333c-12.8 0-21.333 8.533-21.333 21.333s8.533 21.333 21.333 21.333h469.333c12.8 0 21.333-8.533 21.333-21.333s-8.533-21.333-21.333-21.333zM661.333 789.333h-298.667c-12.8 0-21.333 8.533-21.333 21.333v64c0 6.4 2.133 10.667 6.4 14.933l64 64c4.267 4.267 8.533 6.4 14.933 6.4h170.667c6.4 0 10.667-2.133 14.933-6.4l64-64c4.267-4.267 6.4-8.533 6.4-14.933v-64c0-12.8-8.533-21.333-21.333-21.333zM384 832h256v34.133l-51.2 51.2h-153.6l-51.2-51.2v-34.133z" />
<glyph unicode="&#xe910;" glyph-name="feather" d="M128-42.667c-2.133 0-6.4 0-8.533 2.133-10.667 4.267-14.933 17.067-10.667 27.733 12.8 34.133 349.867 823.467 846.933 951.467 10.667 2.133 23.467-4.267 25.6-14.933s-4.267-23.467-14.933-25.6c-475.733-123.733-814.933-919.467-819.2-928-2.133-8.533-10.667-12.8-19.2-12.8zM249.6 68.267c-27.733 0-53.333 8.533-70.4 21.333-2.133 2.133-2.133 2.133-4.267 4.267-4.267 6.4-117.333 151.467-44.8 360.533 4.267 10.667 12.8 14.933 23.467 14.933 6.4 0 10.667-4.267 14.933-10.667 12.8 40.533 34.133 85.333 72.533 130.133 179.2 211.2 462.933 349.867 704 349.867 12.8 0 23.467 0 36.267 0 8.533 0 14.933-4.267 17.067-12.8 4.267-6.4 2.133-14.933-2.133-21.333-2.133-4.267-296.533-396.8-384-531.2-166.4-266.667-298.667-305.067-362.667-305.067zM206.933 121.6c10.667-8.533 25.6-10.667 42.667-10.667 44.8 0 164.267 27.733 328.533 285.867 74.667 113.067 288 401.067 360.533 499.2-228.267-2.133-494.933-134.4-665.6-334.933-115.2-134.4-61.867-270.933-59.733-277.333 4.267-8.533 0-19.2-6.4-25.6-8.533-6.4-19.2-6.4-25.6 0-12.8 10.667-23.467 29.867-29.867 51.2 0-102.4 46.933-174.933 55.467-187.733zM475.733 322.133c-70.4 0-136.533 19.2-140.8 19.2-10.667 4.267-17.067 14.933-14.933 25.6 4.267 10.667 14.933 17.067 25.6 14.933 2.133 0 140.8-40.533 219.733-2.133 10.667 4.267 23.467 0 27.733-10.667s0-23.467-10.667-27.733c-29.867-12.8-68.267-19.2-106.667-19.2zM518.4 386.133c-70.4 0-136.533 19.2-140.8 19.2-10.667 4.267-17.067 14.933-14.933 25.6 4.267 10.667 14.933 17.067 25.6 14.933 2.133 0 140.8-40.533 219.733-2.133 10.667 4.267 23.467 0 27.733-10.667s0-23.467-10.667-27.733c-29.867-12.8-68.267-19.2-106.667-19.2zM469.333 554.667c-6.4 0-14.933 4.267-19.2 10.667-2.133 4.267-57.6 98.133-23.467 189.867 4.267 10.667 17.067 17.067 27.733 12.8s17.067-17.067 12.8-27.733c-27.733-70.4 19.2-151.467 19.2-151.467 6.4-10.667 2.133-23.467-6.4-29.867-2.133-4.267-6.4-4.267-10.667-4.267z" />
<glyph unicode="&#xe911;" glyph-name="encre" d="M746.667 768h-469.333c-10.667 0-19.2 8.533-21.333 17.067l-21.333 128 42.667 6.4 17.067-108.8h433.067l19.2 110.933 42.667-6.4-21.333-128c-2.133-10.667-10.667-19.2-21.333-19.2zM554.667-21.333c-6.4 0-10.667 2.133-14.933 6.4l-27.733 27.733-27.733-27.733c-4.267-4.267-12.8-6.4-19.2-6.4-6.4 2.133-12.8 6.4-14.933 12.8l-256 533.333c-2.133 6.4-2.133 12.8 0 17.067l106.667 256 38.4-17.067-102.4-247.467 238.933-497.067 21.333 21.333c8.533 8.533 21.333 8.533 29.867 0l21.333-21.333 238.933 497.067-102.4 247.467 38.4 17.067 106.667-256c2.133-6.4 2.133-12.8 0-17.067l-256-533.333c-2.133-6.4-8.533-10.667-14.933-12.8-2.133 0-2.133 0-4.267 0zM490.667 426.667h42.667v-384h-42.667v384zM512 405.333c-46.933 0-85.333 38.4-85.333 85.333s38.4 85.333 85.333 85.333 85.333-38.4 85.333-85.333-38.4-85.333-85.333-85.333zM512 533.333c-23.467 0-42.667-19.2-42.667-42.667s19.2-42.667 42.667-42.667 42.667 19.2 42.667 42.667-19.2 42.667-42.667 42.667z" />
<glyph unicode="&#xe912;" glyph-name="linkedin" d="M970.667-21.333h-213.333c-12.8 0-21.333 8.533-21.333 21.333v311.467c0 93.867-34.133 106.667-68.267 106.667-40.533 0-59.733-46.933-59.733-91.733v-326.4c0-12.8-8.533-21.333-21.333-21.333h-202.667c-6.4 0-10.667 2.133-14.933 6.4s-6.4 8.533-6.4 14.933c0 4.267 2.133 533.333 0 573.867 0 6.4 2.133 10.667 6.4 14.933s10.667 6.4 14.933 6.4h202.667c12.8 0 21.333-8.533 21.333-21.333v-42.667c29.867 32 78.933 64 145.067 64h4.267c149.333 0 234.667-96 234.667-264.533v-330.667c0-12.8-8.533-21.333-21.333-21.333zM778.667 21.333h170.667v311.467c0 145.067-66.133 221.867-192 221.867h-4.267c-98.133 0-147.2-93.867-147.2-93.867-4.267-8.533-14.933-12.8-23.467-10.667-10.667 2.133-17.067 10.667-17.067 21.333v85.333h-160c2.133-96 0-441.6 0-533.333h160v300.8c0 78.933 42.667 134.4 102.4 134.4 51.2 0 110.933-25.6 110.933-149.333v-288zM288-21.333h-192c-12.8 0-21.333 8.533-21.333 21.333v576c0 12.8 8.533 21.333 21.333 21.333h192c12.8 0 21.333-8.533 21.333-21.333v-576c0-12.8-8.533-21.333-21.333-21.333zM117.333 21.333h149.333v533.333h-149.333v-533.333zM185.6 640v0c-78.933 0-125.867 64-125.867 123.733s49.067 121.6 128 121.6c76.8 0 123.733-61.867 125.867-121.6 0-59.733-49.067-123.733-128-123.733zM187.733 842.667c-51.2 0-85.333-40.533-85.333-78.933s32-81.067 81.067-81.067h2.133c51.2 0 83.2 40.533 83.2 81.067 0 38.4-29.867 78.933-81.067 78.933z" />
<glyph unicode="&#xe913;" glyph-name="medal" d="M522.667 384c-117.333 0-213.333 96-213.333 213.333s96 213.333 213.333 213.333c117.333 0 213.333-96 213.333-213.333s-96-213.333-213.333-213.333zM522.667 768c-93.867 0-170.667-76.8-170.667-170.667s76.8-170.667 170.667-170.667c93.867 0 170.667 76.8 170.667 170.667s-76.8 170.667-170.667 170.667zM522.667 281.6c-21.333 0-38.4 14.933-53.333 27.733-6.4 6.4-14.933 14.933-21.333 14.933-4.267 2.133-17.067 0-27.733-2.133-19.2-4.267-42.667-6.4-57.6 2.133-19.2 10.667-25.6 32-32 49.067-2.133 8.533-6.4 21.333-10.667 23.467 0 4.267-10.667 8.533-21.333 12.8-17.067 6.4-38.4 12.8-49.067 32s-6.4 38.4-2.133 57.6c2.133 10.667 4.267 21.333 2.133 27.733-2.133 4.267-8.533 12.8-14.933 21.333-12.8 10.667-27.733 27.733-27.733 49.067s14.933 38.4 27.733 53.333c6.4 6.4 14.933 14.933 14.933 21.333 2.133 6.4 0 17.067-2.133 27.733-4.267 19.2-8.533 38.4 2.133 57.6s32 25.6 49.067 32c8.533 2.133 21.333 6.4 23.467 10.667 4.267 4.267 8.533 14.933 10.667 23.467 6.4 17.067 12.8 38.4 32 49.067 14.933 8.533 38.4 6.4 57.6 2.133 10.667-2.133 21.333-4.267 27.733-2.133 4.267 2.133 12.8 8.533 21.333 14.933 12.8 12.8 29.867 27.733 53.333 27.733 21.333 0 38.4-14.933 53.333-27.733 6.4-6.4 14.933-14.933 21.333-14.933 4.267-2.133 17.067 0 27.733 2.133 19.2 4.267 42.667 6.4 57.6-2.133 19.2-10.667 25.6-32 32-49.067 2.133-8.533 6.4-21.333 10.667-23.467-2.133-6.4 8.533-10.667 19.2-14.933 17.067-6.4 38.4-12.8 49.067-32s6.4-38.4 2.133-57.6c-2.133-10.667-4.267-21.333-2.133-27.733 2.133-4.267 8.533-12.8 14.933-21.333 12.8-12.8 27.733-29.867 27.733-53.333s-14.933-38.4-27.733-53.333c-6.4-6.4-14.933-14.933-14.933-21.333-2.133-6.4 0-17.067 2.133-27.733 4.267-19.2 8.533-38.4-2.133-57.6s-32-25.6-49.067-32c-8.533-2.133-21.333-6.4-23.467-10.667-4.267-4.267-8.533-14.933-10.667-23.467-6.4-17.067-12.8-38.4-32-49.067-14.933-8.533-38.4-6.4-57.6-2.133-10.667 2.133-21.333 4.267-27.733 2.133-4.267-2.133-12.8-8.533-21.333-14.933-12.8-6.4-29.867-21.333-51.2-21.333zM445.867 369.067c6.4 0 10.667 0 14.933-2.133 14.933-4.267 27.733-14.933 38.4-25.6 8.533-6.4 19.2-17.067 23.467-17.067 6.4 0 17.067 8.533 23.467 17.067 10.667 10.667 23.467 21.333 38.4 25.6s32 0 46.933-2.133c12.8-2.133 25.6-2.133 27.733-2.133 4.267 2.133 8.533 14.933 12.8 25.6 4.267 14.933 10.667 29.867 21.333 40.533s27.733 17.067 40.533 21.333c10.667 2.133 23.467 6.4 25.6 12.8 2.133 4.267 0 19.2-2.133 27.733-2.133 14.933-6.4 32-2.133 46.933s14.933 27.733 25.6 38.4c6.4 8.533 17.067 19.2 17.067 23.467s-8.533 17.067-17.067 23.467c-10.667 10.667-21.333 23.467-25.6 38.4s0 32 2.133 46.933c2.133 8.533 4.267 23.467 2.133 27.733s-14.933 8.533-25.6 12.8c-14.933 4.267-29.867 10.667-40.533 21.333s-17.067 27.733-21.333 40.533c-2.133 10.667-6.4 23.467-12.8 25.6-2.133 0-14.933 0-27.733-2.133-14.933-4.267-32-6.4-46.933-2.133-14.933 0-27.733 12.8-38.4 21.333-8.533 6.4-19.2 17.067-23.467 17.067-6.4 0-17.067-8.533-23.467-17.067-10.667-10.667-23.467-21.333-38.4-25.6s-32 0-46.933 2.133c-12.8 2.133-25.6 4.267-27.733 2.133-4.267-2.133-8.533-14.933-12.8-25.6-4.267-14.933-10.667-29.867-21.333-40.533s-27.733-17.067-40.533-21.333c-10.667-2.133-23.467-6.4-25.6-12.8-2.133-4.267 0-19.2 2.133-27.733 2.133-14.933 6.4-32 2.133-46.933s-14.933-27.733-25.6-38.4c-6.4-8.533-17.067-19.2-17.067-23.467s8.533-17.067 17.067-23.467c10.667-10.667 21.333-23.467 25.6-38.4s0-32-2.133-46.933c-2.133-8.533-4.267-23.467-2.133-27.733s14.933-8.533 25.6-12.8c14.933-4.267 29.867-10.667 40.533-21.333s17.067-27.733 21.333-40.533c2.133-10.667 6.4-23.467 12.8-25.6 2.133 0 14.933 0 27.733 2.133 10.667 4.267 21.333 8.533 32 8.533zM326.4-25.6c-8.533 0-17.067 4.267-19.2 12.8l-38.4 91.733-76.8-51.2c-6.4-4.267-17.067-4.267-23.467 0s-10.667 12.8-8.533 21.333c51.2 224 151.467 362.667 155.733 369.067 6.4 8.533 21.333 10.667 29.867 4.267s10.667-21.333 4.267-29.867c0-2.133-83.2-115.2-136.533-300.8l53.333 34.133c4.267 4.267 12.8 4.267 17.067 2.133 6.4-2.133 10.667-6.4 12.8-12.8l25.6-59.733c23.467 81.067 72.533 226.133 121.6 275.2 8.533 8.533 21.333 8.533 29.867 0s8.533-21.333 0-29.867c-51.2-51.2-108.8-245.333-128-315.733-2.133-4.267-8.533-10.667-19.2-10.667 0 0 0 0 0 0zM718.933-25.6c0 0 0 0 0 0-10.667 0-19.2 6.4-21.333 14.933-19.2 70.4-76.8 264.533-128 315.733-8.533 8.533-8.533 21.333 0 29.867s21.333 8.533 29.867 0c49.067-51.2 98.133-194.133 121.6-275.2l25.6 59.733c2.133 6.4 6.4 10.667 12.8 12.8s12.8 0 17.067-2.133l51.2-34.133c-53.333 179.2-153.6 275.2-153.6 275.2-8.533 8.533-8.533 21.333 0 29.867s21.333 8.533 29.867 0c4.267-4.267 128-123.733 179.2-349.867 2.133-8.533-2.133-17.067-8.533-21.333s-17.067-4.267-23.467 0l-76.8 51.2-38.4-91.733c0-10.667-8.533-14.933-17.067-14.933zM522.667 475.733c-68.267 0-121.6 55.467-121.6 121.6s55.467 121.6 121.6 121.6c68.267 0 121.6-55.467 121.6-121.6s-53.333-121.6-121.6-121.6zM522.667 676.267c-44.8 0-78.933-36.267-78.933-78.933s36.267-78.933 78.933-78.933c44.8 0 78.933 36.267 78.933 78.933s-34.133 78.933-78.933 78.933z" />
<glyph unicode="&#xe914;" glyph-name="micro" d="M518.4 194.133c-123.733 0-224 100.267-224 224v307.2c0 123.733 100.267 224 224 224s224-100.267 224-224v-307.2c0-121.6-100.267-224-224-224zM518.4 908.8c-102.4 0-183.467-83.2-183.467-183.467v-307.2c0-102.4 83.2-183.467 183.467-183.467s183.467 83.2 183.467 183.467v307.2c0 102.4-81.067 183.467-183.467 183.467zM518.4 113.067c-168.533 0-307.2 136.533-307.2 307.2v142.933c0 10.667 8.533 21.333 21.333 21.333 10.667 0 21.333-8.533 21.333-21.333v-142.933c0-147.2 119.467-264.533 264.533-264.533s264.533 119.467 264.533 264.533v142.933c0 10.667 8.533 21.333 21.333 21.333 10.667 0 21.333-8.533 21.333-21.333v-142.933c0-170.667-138.667-307.2-307.2-307.2zM580.267-51.2h-121.6c-10.667 0-21.333 8.533-21.333 21.333s8.533 21.333 21.333 21.333h121.6c10.667 0 21.333-8.533 21.333-21.333s-10.667-21.333-21.333-21.333zM518.4-51.2c-10.667 0-21.333 8.533-21.333 21.333v164.267c0 10.667 8.533 21.333 21.333 21.333 10.667 0 21.333-8.533 21.333-21.333v-164.267c0-10.667-10.667-21.333-21.333-21.333zM723.2 563.2h-409.6c-10.667 0-21.333 8.533-21.333 21.333s8.533 21.333 21.333 21.333h409.6c10.667 0 21.333-8.533 21.333-21.333s-10.667-21.333-21.333-21.333z" />
<glyph unicode="&#xe915;" glyph-name="next-full" d="M221.867-2.133c-23.467 0-40.533 19.2-40.533 42.667v814.933c0 23.467 17.067 42.667 40.533 42.667 8.533 0 17.067-2.133 23.467-6.4l601.6-407.467c10.667-8.533 19.2-21.333 19.2-34.133 0-14.933-6.4-27.733-19.2-36.267l-601.6-409.6c-6.4-4.267-14.933-6.4-23.467-6.4zM224 853.333v-812.8l597.333 405.333-597.333 407.467z" />
<glyph unicode="&#xe916;" glyph-name="pdf2" d="M341.333 128c0 0 0 0 0 0-25.6 0-42.667 17.067-44.8 42.667-4.267 46.933 49.067 123.733 174.933 145.067 17.067 36.267 29.867 76.8 40.533 121.6-21.333 42.667-36.267 83.2-42.667 115.2-8.533 40.533 0 64 10.667 76.8 19.2 23.467 53.333 23.467 74.667 0 14.933-17.067 21.333-40.533 19.2-70.4-2.133-21.333-6.4-64-17.067-117.333 23.467-46.933 51.2-89.6 81.067-125.867 117.333-14.933 168.533-57.6 166.4-96 0-19.2-14.933-36.267-44.8-36.267-12.8 0-27.733 4.267-42.667 10.667-32 14.933-66.133 42.667-100.267 81.067-36.267 4.267-78.933 4.267-117.333 0-27.733-53.333-59.733-93.867-98.133-121.6-21.333-17.067-42.667-25.6-59.733-25.6zM443.733 264.533c-55.467-17.067-87.467-46.933-100.267-72.533-6.4-12.8-4.267-21.333-4.267-21.333v0 0c2.133 0 14.933 2.133 34.133 17.067 27.733 19.2 51.2 44.8 70.4 76.8zM689.067 262.4c14.933-12.8 29.867-23.467 44.8-29.867s23.467-6.4 27.733-6.4c-6.4 8.533-25.6 23.467-72.533 36.267zM544 322.133c12.8 0 25.6 0 36.267 0-12.8 19.2-27.733 38.4-38.4 59.733-6.4-21.333-12.8-40.533-21.333-59.733 8.533 0 17.067 0 23.467 0zM518.4 601.6c0 0-2.133 0-4.267-2.133-4.267-4.267-6.4-19.2-2.133-40.533 2.133-14.933 8.533-32 14.933-51.2 4.267 23.467 4.267 40.533 6.4 51.2 2.133 23.467-6.4 34.133-8.533 36.267-2.133 4.267-4.267 6.4-6.4 6.4zM874.667-42.667h-682.667c-36.267 0-64 27.733-64 64v853.333c0 36.267 27.733 64 64 64h469.333c6.4 0 10.667-2.133 14.933-6.4l256-256c4.267-4.267 6.4-8.533 6.4-14.933v-640c0-36.267-27.733-64-64-64zM192 896c-12.8 0-21.333-8.533-21.333-21.333v-853.333c0-12.8 8.533-21.333 21.333-21.333h682.667c12.8 0 21.333 8.533 21.333 21.333v631.467l-243.2 243.2h-460.8zM917.333 640h-256c-12.8 0-21.333 8.533-21.333 21.333v234.667h42.667v-213.333h234.667v-42.667z" />
<glyph unicode="&#xe917;" glyph-name="pie-chart" d="M512-42.667c-270.933 0-490.667 219.733-490.667 490.667s219.733 490.667 490.667 490.667c270.933 0 490.667-219.733 490.667-490.667s-219.733-490.667-490.667-490.667zM512 896c-247.467 0-448-200.533-448-448s200.533-448 448-448c247.467 0 448 200.533 448 448s-200.533 448-448 448zM640-21.333c-8.533 0-17.067 6.4-21.333 14.933l-128 448c-2.133 4.267-2.133 8.533 0 10.667l128 448c4.267 10.667 14.933 17.067 25.6 14.933 10.667-4.267 17.067-14.933 14.933-25.6l-125.867-441.6 128-441.6c4.267-10.667-4.267-23.467-14.933-25.6-2.133-2.133-4.267-2.133-6.4-2.133zM512 426.667h-469.333c-12.8 0-21.333 8.533-21.333 21.333s8.533 21.333 21.333 21.333h469.333c12.8 0 21.333-8.533 21.333-21.333s-8.533-21.333-21.333-21.333z" />
<glyph unicode="&#xe918;" glyph-name="pin" d="M512 512c-117.333 0-213.333 96-213.333 213.333s96 213.333 213.333 213.333c117.333 0 213.333-96 213.333-213.333s-96-213.333-213.333-213.333zM512 896c-93.867 0-170.667-76.8-170.667-170.667s76.8-170.667 170.667-170.667c93.867 0 170.667 76.8 170.667 170.667s-76.8 170.667-170.667 170.667zM512-42.667c-12.8 0-21.333 8.533-21.333 21.333v554.667c0 12.8 8.533 21.333 21.333 21.333s21.333-8.533 21.333-21.333v-554.667c0-12.8-8.533-21.333-21.333-21.333zM512 588.8c-74.667 0-136.533 61.867-136.533 136.533 0 12.8 8.533 21.333 21.333 21.333s21.333-8.533 21.333-21.333c0-51.2 42.667-93.867 93.867-93.867 12.8 0 21.333-8.533 21.333-21.333s-8.533-21.333-21.333-21.333z" />
<glyph unicode="&#xe919;" glyph-name="previous-full" d="M821.333-2.133c-8.533 0-17.067 2.133-23.467 6.4l-601.6 407.467c-10.667 8.533-19.2 21.333-19.2 36.267s6.4 27.733 19.2 36.267l601.6 407.467c6.4 4.267 14.933 6.4 23.467 6.4 23.467 0 42.667-19.2 42.667-42.667v-814.933c0-23.467-19.2-42.667-42.667-42.667zM821.333 855.467l-601.6-407.467 601.6-407.467v814.933z" />
<glyph unicode="&#xe91a;" glyph-name="rss" d="M650.667 85.333h-128c-12.8 0-21.333 8.533-21.333 21.333 0 78.933-32 155.733-87.467 211.2-57.6 57.6-130.133 87.467-211.2 87.467-12.8 0-21.333 8.533-21.333 21.333v128c0 12.8 8.533 21.333 21.333 21.333 121.6 0 245.333-51.2 332.8-136.533 89.6-89.6 136.533-206.933 136.533-332.8 0-12.8-8.533-21.333-21.333-21.333zM544 128h85.333c-4.267 106.667-49.067 204.8-123.733 279.467-72.533 72.533-177.067 119.467-279.467 123.733v-85.333c83.2-4.267 160-38.4 219.733-100.267 57.6-57.6 91.733-134.4 98.133-217.6zM906.667 85.333h-149.333c-6.4 0-10.667 2.133-14.933 6.4s-6.4 10.667-6.4 14.933c0 6.4 0 12.8 0 21.333 0 281.6-230.4 512-512 512-6.4 0-12.8 0-21.333 0-6.4 0-10.667 2.133-14.933 6.4s-6.4 8.533-6.4 14.933v149.333c0 10.667 8.533 21.333 21.333 21.333h4.267c6.4 0 10.667 0 17.067 0 388.267 0 704-315.733 704-704 0-6.4 0-10.667 0-17.067v-4.267c0-12.8-10.667-21.333-21.333-21.333zM778.667 128h106.667c0 364.8-296.533 661.333-661.333 661.333v-106.667c305.067 0 554.667-249.6 554.667-554.667zM245.333 21.333c-70.4 0-128 57.6-128 128s57.6 128 128 128c70.4 0 128-57.6 128-128s-57.6-128-128-128zM245.333 234.667c-46.933 0-85.333-38.4-85.333-85.333s38.4-85.333 85.333-85.333c46.933 0 85.333 38.4 85.333 85.333s-38.4 85.333-85.333 85.333z" />
<glyph unicode="&#xe91b;" glyph-name="settings2" d="M539.733-42.667h-57.6c-32 0-57.6 21.333-64 53.333l-8.533 44.8c-38.4 8.533-74.667 25.6-106.667 44.8l-38.4-25.6c-25.6-17.067-59.733-14.933-81.067 6.4l-40.533 40.533c-21.333 21.333-25.6 55.467-6.4 81.067l25.6 38.4c-19.2 34.133-34.133 70.4-44.8 106.667l-44.8 8.533c-29.867 6.4-51.2 32-51.2 64v57.6c0 32 21.333 57.6 53.333 64l44.8 8.533c8.533 38.4 25.6 74.667 44.8 106.667l-25.6 38.4c-17.067 25.6-14.933 59.733 6.4 81.067l40.533 40.533c21.333 21.333 57.6 25.6 81.067 6.4l38.4-25.6c34.133 19.2 70.4 34.133 106.667 44.8l8.533 44.8c6.4 29.867 32 51.2 64 51.2h57.6c32 0 57.6-21.333 64-53.333l8.533-44.8c38.4-8.533 74.667-25.6 106.667-44.8l38.4 25.6c25.6 17.067 59.733 14.933 81.067-6.4l40.533-40.533c21.333-21.333 25.6-55.467 6.4-81.067l-25.6-38.4c19.2-34.133 34.133-70.4 44.8-106.667l44.8-8.533c29.867-6.4 53.333-32 53.333-64v-57.6c0-32-21.333-57.6-53.333-64l-44.8-8.533c-8.533-38.4-25.6-74.667-44.8-106.667l25.6-38.4c17.067-25.6 14.933-59.733-6.4-81.067l-40.533-40.533c-12.8-12.8-27.733-19.2-44.8-19.2v0c-12.8 0-25.6 4.267-36.267 10.667l-38.4 25.6c-34.133-19.2-70.4-34.133-106.667-44.8l-8.533-44.8c-8.533-27.733-34.133-49.067-66.133-49.067zM305.067 147.2c4.267 0 8.533-2.133 10.667-4.267 36.267-23.467 76.8-40.533 119.467-49.067 8.533-2.133 14.933-8.533 17.067-17.067l10.667-59.733c2.133-10.667 10.667-17.067 21.333-17.067h57.6c10.667 0 19.2 6.4 21.333 17.067l10.667 59.733c2.133 8.533 8.533 14.933 17.067 17.067 42.667 8.533 83.2 25.6 119.467 49.067 6.4 4.267 17.067 4.267 23.467 0l49.067-34.133c8.533-6.4 19.2-4.267 27.733 2.133l40.533 40.533c6.4 6.4 8.533 19.2 2.133 27.733l-34.133 49.067c-4.267 6.4-4.267 17.067 0 23.467 23.467 36.267 40.533 76.8 49.067 119.467 2.133 8.533 8.533 14.933 17.067 17.067l59.733 10.667c10.667 2.133 17.067 10.667 17.067 21.333v57.6c0 10.667-6.4 19.2-17.067 21.333l-59.733 10.667c-8.533 2.133-14.933 8.533-17.067 17.067-8.533 42.667-25.6 83.2-49.067 119.467-4.267 6.4-4.267 17.067 0 23.467l34.133 49.067c6.4 8.533 4.267 19.2-2.133 27.733l-40.533 40.533c-6.4 6.4-19.2 8.533-27.733 2.133l-49.067-34.133c-6.4-4.267-17.067-4.267-23.467 0-36.267 23.467-76.8 40.533-119.467 49.067-8.533 2.133-14.933 8.533-17.067 17.067l-10.667 59.733c-2.133 10.667-10.667 17.067-21.333 17.067h-57.6c-10.667 0-19.2-6.4-21.333-17.067l-10.667-59.733c-2.133-8.533-8.533-14.933-17.067-17.067-42.667-8.533-83.2-25.6-119.467-49.067-6.4-4.267-17.067-4.267-23.467 0l-49.067 34.133c-8.533 6.4-19.2 4.267-27.733-2.133l-40.533-40.533c-6.4-6.4-8.533-19.2-2.133-27.733l34.133-49.067c4.267-6.4 4.267-17.067 0-23.467-23.467-36.267-40.533-76.8-49.067-119.467-2.133-8.533-8.533-14.933-17.067-17.067l-59.733-10.667c-10.667-2.133-17.067-10.667-17.067-21.333v-57.6c0-10.667 6.4-19.2 17.067-21.333l59.733-10.667c8.533-2.133 14.933-8.533 17.067-17.067 8.533-42.667 25.6-83.2 49.067-119.467 4.267-6.4 4.267-17.067 0-23.467l-34.133-49.067c-6.4-8.533-4.267-19.2 2.133-27.733l40.533-40.533c6.4-6.4 19.2-8.533 27.733-2.133l49.067 34.133c4.267 2.133 8.533 4.267 12.8 4.267zM512 256c-106.667 0-192 85.333-192 192s85.333 192 192 192c106.667 0 192-85.333 192-192s-85.333-192-192-192zM512 597.333c-83.2 0-149.333-66.133-149.333-149.333s66.133-149.333 149.333-149.333c83.2 0 149.333 66.133 149.333 149.333s-66.133 149.333-149.333 149.333z" />
<glyph unicode="&#xe91c;" glyph-name="smiley" d="M512-53.333c-270.933 0-490.667 219.733-490.667 490.667s219.733 490.667 490.667 490.667 490.667-219.733 490.667-490.667-219.733-490.667-490.667-490.667zM512 885.333c-247.467 0-448-200.533-448-448s200.533-448 448-448 448 200.533 448 448-200.533 448-448 448zM320 512c-53.333 0-96 42.667-96 96s42.667 96 96 96 96-42.667 96-96-42.667-96-96-96zM320 661.333c-29.867 0-53.333-23.467-53.333-53.333s23.467-53.333 53.333-53.333 53.333 23.467 53.333 53.333-23.467 53.333-53.333 53.333zM704 512c-53.333 0-96 42.667-96 96s42.667 96 96 96 96-42.667 96-96-42.667-96-96-96zM704 661.333c-29.867 0-53.333-23.467-53.333-53.333s23.467-53.333 53.333-53.333c29.867 0 53.333 23.467 53.333 53.333s-23.467 53.333-53.333 53.333zM512 106.667c-181.333 0-330.667 149.333-330.667 330.667 0 12.8 8.533 21.333 21.333 21.333s21.333-8.533 21.333-21.333c0-157.867 130.133-288 288-288s288 130.133 288 288c0 12.8 8.533 21.333 21.333 21.333s21.333-8.533 21.333-21.333c0-181.333-149.333-330.667-330.667-330.667z" />
<glyph unicode="&#xe91d;" glyph-name="stack" d="M512 426.667c-17.067 0-32 4.267-46.933 10.667l-356.267 177.067c-21.333 10.667-36.267 32-36.267 57.6s12.8 46.933 36.267 57.6l354.133 177.067c29.867 14.933 66.133 14.933 96 0l354.133-177.067c21.333-10.667 36.267-32 36.267-57.6s-12.8-46.933-36.267-57.6l-354.133-177.067c-14.933-6.4-29.867-10.667-46.933-10.667zM512 876.8c-10.667 0-19.2-2.133-27.733-6.4l-356.267-179.2c-6.4-4.267-12.8-10.667-12.8-19.2s4.267-14.933 12.8-19.2l354.133-177.067c17.067-8.533 40.533-8.533 57.6 0l356.267 177.067c6.4 4.267 12.8 10.667 12.8 19.2s-4.267 14.933-12.8 19.2l-356.267 177.067c-8.533 4.267-17.067 8.533-27.733 8.533zM512 277.333c-17.067 0-32 4.267-46.933 10.667l-388.267 194.133c-10.667 4.267-14.933 17.067-8.533 27.733 4.267 10.667 17.067 14.933 27.733 8.533l388.267-194.133c17.067-8.533 38.4-8.533 57.6 0l388.267 194.133c10.667 4.267 23.467 0 27.733-8.533 4.267-10.667 0-23.467-8.533-27.733l-388.267-194.133c-17.067-6.4-32-10.667-49.067-10.667zM512 128c-17.067 0-32 4.267-46.933 10.667l-388.267 194.133c-10.667 4.267-14.933 17.067-8.533 27.733 4.267 10.667 17.067 14.933 27.733 8.533l388.267-194.133c17.067-8.533 38.4-8.533 57.6 0l388.267 194.133c10.667 4.267 23.467 0 27.733-8.533 4.267-10.667 0-23.467-8.533-27.733l-388.267-194.133c-17.067-6.4-32-10.667-49.067-10.667zM512-21.333c-17.067 0-32 4.267-46.933 10.667l-388.267 194.133c-10.667 4.267-14.933 17.067-8.533 27.733 4.267 10.667 17.067 14.933 27.733 8.533l388.267-194.133c17.067-8.533 38.4-8.533 57.6 0l388.267 194.133c10.667 4.267 23.467 0 27.733-8.533 4.267-10.667 0-23.467-8.533-27.733l-388.267-194.133c-17.067-6.4-32-10.667-49.067-10.667z" />
<glyph unicode="&#xe91e;" glyph-name="time-pass" d="M490.667 32c-217.6 0-394.667 177.067-394.667 394.667s177.067 394.667 394.667 394.667c209.067 0 381.867-164.267 394.667-373.333 0-12.8-8.533-21.333-19.2-23.467-12.8 0-21.333 8.533-23.467 19.2-10.667 189.867-164.267 334.933-352 334.933-194.133 0-352-157.867-352-352s157.867-352 352-352c132.267 0 251.733 72.533 313.6 192 6.4 10.667 19.2 14.933 27.733 8.533 10.667-6.4 14.933-19.2 8.533-27.733-66.133-134.4-200.533-215.467-349.867-215.467zM853.333 405.333c-4.267 0-10.667 2.133-14.933 6.4l-113.067 102.4c-8.533 8.533-8.533 21.333-2.133 29.867 8.533 8.533 21.333 8.533 29.867 2.133l100.267-89.6 91.733 89.6c8.533 8.533 21.333 8.533 29.867 0s8.533-21.333 0-29.867l-106.667-102.4c-4.267-6.4-8.533-8.533-14.933-8.533zM522.667 384h-234.667c-12.8 0-21.333 8.533-21.333 21.333s8.533 21.333 21.333 21.333h213.333v213.333c0 12.8 8.533 21.333 21.333 21.333s21.333-8.533 21.333-21.333v-234.667c0-12.8-8.533-21.333-21.333-21.333z" />
<glyph unicode="&#xe91f;" glyph-name="timer" d="M522.667 0c-234.667 0-426.667 192-426.667 426.667s192 426.667 426.667 426.667c234.667 0 426.667-192 426.667-426.667s-192-426.667-426.667-426.667zM522.667 810.667c-211.2 0-384-172.8-384-384s172.8-384 384-384c211.2 0 384 172.8 384 384s-172.8 384-384 384zM693.333 234.667c-6.4 0-10.667 2.133-14.933 6.4l-170.667 170.667c-4.267 4.267-6.4 8.533-6.4 14.933v213.333c0 12.8 8.533 21.333 21.333 21.333s21.333-8.533 21.333-21.333v-204.8l164.267-164.267c8.533-8.533 8.533-21.333 0-29.867-4.267-4.267-8.533-6.4-14.933-6.4zM921.6 518.4c-6.4 0-10.667 2.133-14.933 6.4-8.533 8.533-8.533 21.333 0 29.867 70.4 70.4 70.4 185.6 0 256s-185.6 70.4-256 0c-8.533-8.533-21.333-8.533-29.867 0s-8.533 21.333 0 29.867c42.667 42.667 98.133 66.133 157.867 66.133s115.2-23.467 157.867-66.133c42.667-42.667 66.133-98.133 66.133-157.867s-23.467-115.2-66.133-157.867c-4.267-4.267-8.533-6.4-14.933-6.4zM123.733 518.4c-6.4 0-10.667 2.133-14.933 6.4-42.667 42.667-66.133 98.133-66.133 157.867s23.467 115.2 66.133 157.867 98.133 66.133 157.867 66.133c59.733 0 115.2-23.467 157.867-66.133 8.533-8.533 8.533-21.333 0-29.867s-21.333-8.533-29.867 0c-70.4 70.4-185.6 70.4-256 0s-70.4-185.6 0-256c8.533-8.533 8.533-21.333 0-29.867-4.267-4.267-10.667-6.4-14.933-6.4zM96-21.333c-6.4 0-10.667 2.133-14.933 6.4-8.533 8.533-8.533 21.333 0 29.867l128 128c8.533 8.533 21.333 8.533 29.867 0s8.533-21.333 0-29.867l-128-128c-4.267-4.267-8.533-6.4-14.933-6.4zM949.333-21.333c-6.4 0-10.667 2.133-14.933 6.4l-128 128c-8.533 8.533-8.533 21.333 0 29.867s21.333 8.533 29.867 0l128-128c8.533-8.533 8.533-21.333 0-29.867-4.267-4.267-8.533-6.4-14.933-6.4zM522.667 725.333c-6.4 0-10.667 2.133-14.933 6.4s-6.4 8.533-6.4 14.933c0 6.4 2.133 10.667 6.4 14.933 8.533 8.533 21.333 8.533 29.867 0 4.267-4.267 6.4-8.533 6.4-14.933s-2.133-10.667-6.4-14.933c-4.267-4.267-8.533-6.4-14.933-6.4zM522.667 85.333c-6.4 0-10.667 2.133-14.933 6.4s-6.4 10.667-6.4 14.933 2.133 10.667 6.4 14.933c8.533 8.533 21.333 8.533 29.867 0 4.267-4.267 6.4-10.667 6.4-14.933s-2.133-10.667-6.4-14.933c-4.267-4.267-8.533-6.4-14.933-6.4zM842.667 405.333c-6.4 0-10.667 2.133-14.933 6.4s-6.4 10.667-6.4 14.933c0 6.4 2.133 10.667 6.4 14.933 8.533 8.533 21.333 8.533 29.867 0 4.267-4.267 6.4-8.533 6.4-14.933s-2.133-10.667-6.4-14.933c-4.267-4.267-8.533-6.4-14.933-6.4zM202.667 405.333c-6.4 0-10.667 2.133-14.933 6.4s-6.4 10.667-6.4 14.933c0 6.4 2.133 10.667 6.4 14.933 8.533 8.533 21.333 8.533 29.867 0 4.267-4.267 6.4-8.533 6.4-14.933s-2.133-10.667-6.4-14.933c-4.267-4.267-8.533-6.4-14.933-6.4z" />
<glyph unicode="&#xe920;" glyph-name="upload" d="M657.067 324.267c-6.4 0-10.667 2.133-14.933 6.4l-130.133 130.133-130.133-130.133c-8.533-8.533-21.333-8.533-29.867 0s-8.533 21.333 0 29.867l145.067 145.067c8.533 8.533 21.333 8.533 29.867 0l145.067-145.067c8.533-8.533 8.533-21.333 0-29.867-4.267-4.267-8.533-6.4-14.933-6.4zM512-21.333c-12.8 0-21.333 8.533-21.333 21.333v490.667c0 12.8 8.533 21.333 21.333 21.333s21.333-8.533 21.333-21.333v-490.667c0-12.8-8.533-21.333-21.333-21.333zM821.333 170.667h-618.667c-110.933 0-202.667 91.733-202.667 202.667s91.733 202.667 202.667 202.667c4.267 0 8.533 0 10.667 0 0 6.4 0 14.933 0 21.333 0 164.267 134.4 298.667 298.667 298.667s298.667-134.4 298.667-298.667c0-6.4 0-14.933 0-21.333 4.267 0 8.533 0 10.667 0 110.933 0 202.667-91.733 202.667-202.667s-91.733-202.667-202.667-202.667zM202.667 533.333c-87.467 0-160-72.533-160-160s72.533-160 160-160h618.667c87.467 0 160 72.533 160 160s-72.533 160-160 160c-10.667 0-21.333-2.133-32-2.133-6.4-2.133-14.933 0-19.2 6.4-4.267 4.267-6.4 12.8-6.4 19.2 2.133 14.933 4.267 29.867 4.267 42.667 0 140.8-115.2 256-256 256s-256-115.2-256-256c0-12.8 2.133-27.733 4.267-42.667 2.133-6.4-2.133-14.933-6.4-19.2s-12.8-6.4-19.2-6.4c-10.667 0-21.333 2.133-32 2.133z" />
<glyph unicode="&#xe921;" glyph-name="wave" d="M85.333 362.667c-12.8 0-21.333 8.533-21.333 21.333v85.333c0 12.8 8.533 21.333 21.333 21.333s21.333-8.533 21.333-21.333v-85.333c0-12.8-8.533-21.333-21.333-21.333zM170.667 298.667c-12.8 0-21.333 8.533-21.333 21.333v192c0 12.8 8.533 21.333 21.333 21.333s21.333-8.533 21.333-21.333v-192c0-12.8-8.533-21.333-21.333-21.333zM256 298.667c-12.8 0-21.333 8.533-21.333 21.333v213.333c0 12.8 8.533 21.333 21.333 21.333s21.333-8.533 21.333-21.333v-213.333c0-12.8-8.533-21.333-21.333-21.333zM341.333 149.333c-12.8 0-21.333 8.533-21.333 21.333v512c0 12.8 8.533 21.333 21.333 21.333s21.333-8.533 21.333-21.333v-512c0-12.8-8.533-21.333-21.333-21.333zM426.667 192c-12.8 0-21.333 8.533-21.333 21.333v426.667c0 12.8 8.533 21.333 21.333 21.333s21.333-8.533 21.333-21.333v-426.667c0-12.8-8.533-21.333-21.333-21.333zM512 128c-12.8 0-21.333 8.533-21.333 21.333v554.667c0 12.8 8.533 21.333 21.333 21.333s21.333-8.533 21.333-21.333v-554.667c0-12.8-8.533-21.333-21.333-21.333zM597.333 0c-12.8 0-21.333 8.533-21.333 21.333v810.667c0 12.8 8.533 21.333 21.333 21.333s21.333-8.533 21.333-21.333v-810.667c0-12.8-8.533-21.333-21.333-21.333zM682.667 128c-12.8 0-21.333 8.533-21.333 21.333v554.667c0 12.8 8.533 21.333 21.333 21.333s21.333-8.533 21.333-21.333v-554.667c0-12.8-8.533-21.333-21.333-21.333zM768 234.667c-12.8 0-21.333 8.533-21.333 21.333v341.333c0 12.8 8.533 21.333 21.333 21.333s21.333-8.533 21.333-21.333v-341.333c0-12.8-8.533-21.333-21.333-21.333zM853.333 362.667c-12.8 0-21.333 8.533-21.333 21.333v85.333c0 12.8 8.533 21.333 21.333 21.333s21.333-8.533 21.333-21.333v-85.333c0-12.8-8.533-21.333-21.333-21.333zM938.667 320c-12.8 0-21.333 8.533-21.333 21.333v170.667c0 12.8 8.533 21.333 21.333 21.333s21.333-8.533 21.333-21.333v-170.667c0-12.8-8.533-21.333-21.333-21.333z" />
<glyph unicode="&#xe922;" glyph-name="baloons" d="M416 448c-110.933 0-202.667 110.933-202.667 245.333s91.733 245.333 202.667 245.333c110.933 0 202.667-110.933 202.667-245.333s-91.733-245.333-202.667-245.333zM416 896c-87.467 0-160-91.733-160-202.667s72.533-202.667 160-202.667c87.467 0 160 91.733 160 202.667s-72.533 202.667-160 202.667zM693.333 320c-89.6 0-166.4 68.267-194.133 172.8-2.133 10.667 4.267 23.467 14.933 25.6s23.467-4.267 25.6-14.933c21.333-83.2 83.2-140.8 151.467-140.8 87.467 0 160 91.733 160 202.667s-70.4 202.667-157.867 202.667c-23.467 0-44.8-6.4-66.133-19.2-10.667-6.4-23.467-2.133-29.867 8.533s-2.133 23.467 8.533 29.867c27.733 14.933 57.6 23.467 87.467 23.467 110.933 0 202.667-110.933 202.667-245.333s-91.733-245.333-202.667-245.333zM426.667 426.667h-42.667c-12.8 0-21.333 8.533-21.333 21.333s8.533 21.333 21.333 21.333h42.667c12.8 0 21.333-8.533 21.333-21.333s-8.533-21.333-21.333-21.333zM405.333-21.333c0 0 0 0 0 0-12.8 0-21.333 14.933-21.333 25.6 0 46.933 14.933 93.867 29.867 132.267 21.333 57.6 32 96 8.533 130.133-55.467 81.067-42.667 168.533-40.533 172.8 2.133 10.667 12.8 19.2 23.467 17.067s19.2-12.8 17.067-23.467v0c0 0-10.667-74.667 34.133-142.933 36.267-53.333 14.933-110.933-4.267-166.4-12.8-36.267-25.6-78.933-27.733-119.467 2.133-12.8-8.533-25.6-19.2-25.6zM704 298.667h-42.667c-12.8 0-21.333 8.533-21.333 21.333s8.533 21.333 21.333 21.333h42.667c12.8 0 21.333-8.533 21.333-21.333s-8.533-21.333-21.333-21.333zM686.933-42.667c-10.667 0-21.333 4.267-21.333 17.067 0 29.867-12.8 57.6-25.6 85.333-19.2 44.8-42.667 93.867-4.267 138.667 42.667 51.2 34.133 104.533 34.133 106.667-2.133 10.667 6.4 23.467 17.067 25.6s23.467-6.4 25.6-17.067c0-2.133 14.933-74.667-42.667-142.933-19.2-23.467-10.667-51.2 10.667-93.867 12.8-29.867 29.867-61.867 29.867-100.267-2.133-12.8-12.8-19.2-23.467-19.2 0 0 0 0 0 0zM377.6 529.067c-6.4 0-10.667 2.133-14.933 6.4-119.467 113.067-76.8 228.267-74.667 232.533 4.267 10.667 17.067 17.067 27.733 12.8s17.067-17.067 12.8-27.733c-2.133-4.267-34.133-93.867 64-187.733 8.533-8.533 8.533-21.333 0-29.867-4.267-4.267-10.667-6.4-14.933-6.4zM654.933 401.067c-6.4 0-10.667 2.133-14.933 6.4-42.667 42.667-70.4 89.6-78.933 138.667-2.133 10.667 6.4 23.467 17.067 25.6s23.467-6.4 25.6-17.067c8.533-40.533 29.867-81.067 66.133-117.333 8.533-8.533 8.533-21.333 0-29.867-4.267-4.267-10.667-6.4-14.933-6.4z" />
<glyph unicode="&#xe923;" glyph-name="bar-chart" d="M842.667-21.333h-85.333c-36.267 0-64 27.733-64 64v789.333c0 36.267 27.733 64 64 64h85.333c36.267 0 64-27.733 64-64v-789.333c0-36.267-27.733-64-64-64zM757.333 853.333c-12.8 0-21.333-8.533-21.333-21.333v-789.333c0-12.8 8.533-21.333 21.333-21.333h85.333c12.8 0 21.333 8.533 21.333 21.333v789.333c0 12.8-8.533 21.333-21.333 21.333h-85.333zM565.333-21.333h-85.333c-36.267 0-64 27.733-64 64v405.333c0 36.267 27.733 64 64 64h85.333c36.267 0 64-27.733 64-64v-405.333c0-36.267-27.733-64-64-64zM480 469.333c-12.8 0-21.333-8.533-21.333-21.333v-405.333c0-12.8 8.533-21.333 21.333-21.333h85.333c12.8 0 21.333 8.533 21.333 21.333v405.333c0 12.8-8.533 21.333-21.333 21.333h-85.333zM288-21.333h-85.333c-36.267 0-64 27.733-64 64v149.333c0 36.267 27.733 64 64 64h85.333c36.267 0 64-27.733 64-64v-149.333c0-36.267-27.733-64-64-64zM202.667 213.333c-12.8 0-21.333-8.533-21.333-21.333v-149.333c0-12.8 8.533-21.333 21.333-21.333h85.333c12.8 0 21.333 8.533 21.333 21.333v149.333c0 12.8-8.533 21.333-21.333 21.333h-85.333z" />
<glyph unicode="&#xe924;" glyph-name="checked" d="M885.333-21.333h-725.333c-59.733 0-106.667 46.933-106.667 106.667v725.333c0 59.733 46.933 106.667 106.667 106.667h725.333c59.733 0 106.667-46.933 106.667-106.667v-725.333c0-59.733-46.933-106.667-106.667-106.667zM160 874.667c-36.267 0-64-27.733-64-64v-725.333c0-36.267 27.733-64 64-64h725.333c36.267 0 64 27.733 64 64v725.333c0 36.267-27.733 64-64 64h-725.333zM970.667 746.667h-896c-12.8 0-21.333 8.533-21.333 21.333s8.533 21.333 21.333 21.333h896c12.8 0 21.333-8.533 21.333-21.333s-8.533-21.333-21.333-21.333zM181.333 810.667c-6.4 0-10.667 2.133-14.933 6.4s-6.4 8.533-6.4 14.933 2.133 10.667 6.4 14.933c8.533 8.533 21.333 8.533 29.867 0 4.267-4.267 6.4-8.533 6.4-14.933s-2.133-10.667-6.4-14.933c-4.267-4.267-8.533-6.4-14.933-6.4zM245.333 810.667c-6.4 0-10.667 2.133-14.933 6.4s-6.4 10.667-6.4 14.933 2.133 10.667 6.4 14.933c8.533 8.533 21.333 8.533 29.867 0 4.267-4.267 6.4-10.667 6.4-14.933s-2.133-10.667-6.4-14.933c-4.267-4.267-8.533-6.4-14.933-6.4zM309.333 810.667c-6.4 0-10.667 2.133-14.933 6.4s-6.4 10.667-6.4 14.933 2.133 10.667 6.4 14.933c8.533 8.533 21.333 8.533 29.867 0 4.267-4.267 6.4-10.667 6.4-14.933s-2.133-10.667-6.4-14.933c-4.267-4.267-8.533-6.4-14.933-6.4zM373.333 234.667c-6.4 0-10.667 2.133-14.933 6.4l-106.667 106.667c-8.533 8.533-8.533 21.333 0 29.867s21.333 8.533 29.867 0l93.867-93.867 369.067 307.2c8.533 8.533 23.467 6.4 29.867-2.133 8.533-8.533 6.4-23.467-2.133-29.867l-384-320c-4.267-2.133-10.667-4.267-14.933-4.267z" />
<glyph unicode="&#xe925;" glyph-name="clock2" d="M501.333-32c-264.533 0-480 215.467-480 480s215.467 480 480 480 480-215.467 480-480c0-264.533-215.467-480-480-480zM501.333 885.333c-241.067 0-437.333-196.267-437.333-437.333s196.267-437.333 437.333-437.333 437.333 196.267 437.333 437.333-196.267 437.333-437.333 437.333zM693.333 234.667c-4.267 0-8.533 2.133-12.8 4.267l-209.067 153.6c-12.8 10.667-21.333 27.733-23.467 44.8 0 17.067 6.4 34.133 17.067 44.8 23.467 23.467 68.267 21.333 89.6-4.267l155.733-209.067c6.4-8.533 6.4-21.333-2.133-27.733-4.267-4.267-8.533-6.4-14.933-6.4zM509.867 456.533c-4.267 0-8.533-2.133-12.8-4.267-4.267-4.267-4.267-8.533-4.267-12.8s2.133-8.533 6.4-12.8l91.733-68.267-68.267 93.867c-4.267 2.133-8.533 4.267-12.8 4.267zM501.333 810.667c-12.8 0-21.333 8.533-21.333 21.333v64c0 12.8 8.533 21.333 21.333 21.333s21.333-8.533 21.333-21.333v-64c0-12.8-8.533-21.333-21.333-21.333zM501.333-21.333c-12.8 0-21.333 8.533-21.333 21.333v64c0 12.8 8.533 21.333 21.333 21.333s21.333-8.533 21.333-21.333v-64c0-12.8-8.533-21.333-21.333-21.333zM949.333 426.667h-64c-12.8 0-21.333 8.533-21.333 21.333s8.533 21.333 21.333 21.333h64c12.8 0 21.333-8.533 21.333-21.333s-8.533-21.333-21.333-21.333zM117.333 426.667h-64c-12.8 0-21.333 8.533-21.333 21.333s8.533 21.333 21.333 21.333h64c12.8 0 21.333-8.533 21.333-21.333s-8.533-21.333-21.333-21.333z" />
<glyph unicode="&#xe926;" glyph-name="conversation" d="M622.933-10.667c-106.667 0-209.067 51.2-273.067 138.667l34.133 25.6c57.6-76.8 145.067-121.6 241.067-121.6 0 0 0 0 0 0 46.933 0 91.733 10.667 132.267 32 8.533 4.267 17.067 2.133 23.467-4.267 32-29.867 113.067-27.733 166.4-21.333-66.133 85.333-53.333 162.133-51.2 164.267 0 2.133 0 2.133 2.133 4.267 17.067 40.533 27.733 81.067 27.733 125.867 0 85.333-34.133 162.133-96 219.733l27.733 29.867c68.267-64 108.8-155.733 108.8-249.6 0-49.067-10.667-96-29.867-140.8-2.133-12.8-6.4-81.067 66.133-153.6 6.4-6.4 6.4-12.8 4.267-21.333-2.133-6.4-8.533-12.8-14.933-14.933-17.067-4.267-157.867-32-228.267 17.067-44.8-21.333-91.733-29.867-140.8-29.867 0 0 0 0 0 0zM420.267 187.733c-51.2 0-100.267 10.667-147.2 32-27.733-19.2-68.267-27.733-123.733-27.733 0 0 0 0 0 0-59.733 0-113.067 10.667-115.2 10.667-6.4 2.133-12.8 6.4-14.933 14.933-2.133 6.4 0 14.933 4.267 21.333 76.8 76.8 72.533 149.333 70.4 164.267-21.333 46.933-32 96-32 147.2 0 198.4 160 358.4 358.4 358.4 196.267 0 358.4-162.133 358.4-358.4s-162.133-362.667-358.4-362.667zM270.933 264.533c2.133 0 6.4 0 8.533-2.133 44.8-21.333 91.733-32 140.8-32 174.933 0 315.733 142.933 315.733 317.867s-140.8 317.867-315.733 317.867c-174.933 0-315.733-142.933-315.733-317.867 0-46.933 10.667-91.733 27.733-132.267 0-2.133 2.133-2.133 2.133-4.267 0-4.267 17.067-83.2-55.467-172.8 19.2-4.267 44.8-6.4 70.4-6.4 51.2 0 89.6 8.533 106.667 27.733 4.267 2.133 8.533 4.267 14.933 4.267z" />
<glyph unicode="&#xe927;" glyph-name="cookie" d="M522.667-21.333c-258.133 0-469.333 211.2-469.333 469.333s211.2 469.333 469.333 469.333 469.333-211.2 469.333-469.333-211.2-469.333-469.333-469.333zM522.667 874.667c-234.667 0-426.667-192-426.667-426.667s192-426.667 426.667-426.667 426.667 192 426.667 426.667-192 426.667-426.667 426.667zM443.733 452.267c-42.667 0-76.8 34.133-76.8 76.8s34.133 76.8 76.8 76.8c42.667 0 76.8-34.133 76.8-76.8-2.133-42.667-36.267-76.8-76.8-76.8zM443.733 561.067c-19.2 0-34.133-14.933-34.133-34.133s14.933-34.133 34.133-34.133c19.2 0 34.133 14.933 34.133 34.133-2.133 19.2-17.067 34.133-34.133 34.133zM622.933 652.8c-32 0-57.6 25.6-57.6 57.6s25.6 57.6 57.6 57.6c32 0 57.6-25.6 57.6-57.6s-25.6-57.6-57.6-57.6zM622.933 725.333c-8.533 0-14.933-6.4-14.933-14.933s6.4-14.933 14.933-14.933c8.533 0 14.933 6.4 14.933 14.933s-6.4 14.933-14.933 14.933zM821.333 469.333c0-23.564-19.103-42.667-42.667-42.667s-42.667 19.103-42.667 42.667c0 23.564 19.103 42.667 42.667 42.667s42.667-19.103 42.667-42.667zM576 170.667c-17.067 0-32 14.933-32 32s14.933 32 32 32c17.067 0 32-14.933 32-32s-14.933-32-32-32zM576 213.333c-6.4 0-10.667-4.267-10.667-10.667s4.267-10.667 10.667-10.667c6.4 0 10.667 4.267 10.667 10.667s-4.267 10.667-10.667 10.667zM330.667 277.333c0-23.564-19.103-42.667-42.667-42.667s-42.667 19.103-42.667 42.667c0 23.564 19.103 42.667 42.667 42.667s42.667-19.103 42.667-42.667zM266.667 384c-46.933 0-85.333 38.4-85.333 85.333s38.4 85.333 85.333 85.333c46.933 0 85.333-38.4 85.333-85.333s-38.4-85.333-85.333-85.333zM266.667 512c-23.467 0-42.667-19.2-42.667-42.667s19.2-42.667 42.667-42.667 42.667 19.2 42.667 42.667-19.2 42.667-42.667 42.667zM533.333 320c-29.867 0-53.333 23.467-53.333 53.333s23.467 53.333 53.333 53.333c29.867 0 53.333-23.467 53.333-53.333s-23.467-53.333-53.333-53.333zM533.333 384c-6.4 0-10.667-4.267-10.667-10.667s4.267-10.667 10.667-10.667c6.4 0 10.667 4.267 10.667 10.667s-4.267 10.667-10.667 10.667zM629.333 597.333c0-23.564-19.103-42.667-42.667-42.667s-42.667 19.103-42.667 42.667c0 23.564 19.103 42.667 42.667 42.667s42.667-19.103 42.667-42.667zM373.333 640c-36.267 0-64 27.733-64 64s27.733 64 64 64c36.267 0 64-27.733 64-64s-27.733-64-64-64zM373.333 725.333c-12.8 0-21.333-8.533-21.333-21.333s8.533-21.333 21.333-21.333c12.8 0 21.333 8.533 21.333 21.333s-8.533 21.333-21.333 21.333zM770.133 187.733c-29.867 0-55.467 25.6-55.467 55.467s25.6 55.467 55.467 55.467c29.867 0 55.467-25.6 55.467-55.467 0-32-23.467-55.467-55.467-55.467zM770.133 256c-6.4 0-12.8-6.4-12.8-12.8s6.4-12.8 12.8-12.8c6.4 0 12.8 6.4 12.8 12.8s-4.267 12.8-12.8 12.8z" />
<glyph unicode="&#xe928;" glyph-name="disk" d="M896-42.667h-768c-36.267 0-64 27.733-64 64v853.333c0 36.267 27.733 64 64 64h597.333c6.4 0 12.8-2.133 17.067-8.533l213.333-256c2.133-4.267 4.267-8.533 4.267-12.8v-640c0-36.267-27.733-64-64-64zM128 896c-12.8 0-21.333-8.533-21.333-21.333v-853.333c0-12.8 8.533-21.333 21.333-21.333h768c12.8 0 21.333 8.533 21.333 21.333v631.467l-202.667 243.2h-586.667zM640 725.333h-426.667c-12.8 0-21.333 8.533-21.333 21.333v170.667c0 12.8 8.533 21.333 21.333 21.333s21.333-8.533 21.333-21.333v-149.333h384v149.333c0 12.8 8.533 21.333 21.333 21.333s21.333-8.533 21.333-21.333v-170.667c0-12.8-8.533-21.333-21.333-21.333zM832 85.333h-490.667c-12.8 0-21.333 8.533-21.333 21.333v85.333c0 12.8 8.533 21.333 21.333 21.333s21.333-8.533 21.333-21.333v-64h448v64c0 12.8 8.533 21.333 21.333 21.333s21.333-8.533 21.333-21.333v-85.333c0-12.8-8.533-21.333-21.333-21.333zM512 298.667c-83.2 0-149.333 66.133-149.333 149.333s66.133 149.333 149.333 149.333 149.333-66.133 149.333-149.333-66.133-149.333-149.333-149.333zM512 554.667c-59.733 0-106.667-46.933-106.667-106.667s46.933-106.667 106.667-106.667 106.667 46.933 106.667 106.667-46.933 106.667-106.667 106.667zM448 490.667h42.667v-85.333h-42.667v85.333z" />
<glyph unicode="&#xe929;" glyph-name="document" d="M874.667-42.667h-725.333c-36.267 0-64 27.733-64 64v853.333c0 36.267 27.733 64 64 64h512c6.4 0 10.667-2.133 14.933-6.4l256-234.667c4.267-4.267 6.4-10.667 6.4-14.933v-661.333c0-36.267-27.733-64-64-64zM149.333 896c-12.8 0-21.333-8.533-21.333-21.333v-853.333c0-12.8 8.533-21.333 21.333-21.333h725.333c12.8 0 21.333 8.533 21.333 21.333v652.8l-243.2 221.867h-503.467zM917.333 661.333h-213.333c-36.267 0-64 27.733-64 64v192c0 12.8 8.533 21.333 21.333 21.333s21.333-8.533 21.333-21.333v-192c0-12.8 8.533-21.333 21.333-21.333h213.333c12.8 0 21.333-8.533 21.333-21.333s-8.533-21.333-21.333-21.333zM512 597.333h-234.667c-12.8 0-21.333 8.533-21.333 21.333s8.533 21.333 21.333 21.333h234.667c12.8 0 21.333-8.533 21.333-21.333s-8.533-21.333-21.333-21.333zM746.667 490.667h-469.333c-12.8 0-21.333 8.533-21.333 21.333s8.533 21.333 21.333 21.333h469.333c12.8 0 21.333-8.533 21.333-21.333s-8.533-21.333-21.333-21.333zM746.667 384h-469.333c-12.8 0-21.333 8.533-21.333 21.333s8.533 21.333 21.333 21.333h469.333c12.8 0 21.333-8.533 21.333-21.333s-8.533-21.333-21.333-21.333zM746.667 277.333h-469.333c-12.8 0-21.333 8.533-21.333 21.333s8.533 21.333 21.333 21.333h469.333c12.8 0 21.333-8.533 21.333-21.333s-8.533-21.333-21.333-21.333zM746.667 170.667h-469.333c-12.8 0-21.333 8.533-21.333 21.333s8.533 21.333 21.333 21.333h469.333c12.8 0 21.333-8.533 21.333-21.333s-8.533-21.333-21.333-21.333z" />
<glyph unicode="&#xe92a;" glyph-name="download" d="M512-64c-6.4 0-10.667 2.133-14.933 6.4l-145.067 145.067c-8.533 8.533-8.533 21.333 0 29.867s21.333 8.533 29.867 0l130.133-130.133 130.133 130.133c8.533 8.533 21.333 8.533 29.867 0s8.533-21.333 0-29.867l-145.067-145.067c-4.267-4.267-8.533-6.4-14.933-6.4zM512-64c-12.8 0-21.333 8.533-21.333 21.333v490.667c0 12.8 8.533 21.333 21.333 21.333s21.333-8.533 21.333-21.333v-490.667c0-12.8-8.533-21.333-21.333-21.333zM821.333 170.667h-618.667c-110.933 0-202.667 91.733-202.667 202.667s91.733 202.667 202.667 202.667c4.267 0 8.533 0 10.667 0 0 6.4 0 14.933 0 21.333 0 164.267 134.4 298.667 298.667 298.667s298.667-134.4 298.667-298.667c0-6.4 0-14.933 0-21.333 4.267 0 8.533 0 10.667 0 110.933 0 202.667-91.733 202.667-202.667s-91.733-202.667-202.667-202.667zM202.667 533.333c-87.467 0-160-72.533-160-160s72.533-160 160-160h618.667c87.467 0 160 72.533 160 160s-72.533 160-160 160c-10.667 0-21.333-2.133-32-2.133-6.4-2.133-14.933 0-19.2 6.4-4.267 4.267-6.4 12.8-6.4 19.2 2.133 14.933 4.267 29.867 4.267 42.667 0 140.8-115.2 256-256 256s-256-115.2-256-256c0-12.8 2.133-27.733 4.267-42.667 2.133-6.4-2.133-14.933-6.4-19.2s-12.8-6.4-19.2-6.4c-10.667 0-21.333 2.133-32 2.133z" />
<glyph unicode="&#xe92b;" glyph-name="flag2" d="M256-42.667h-85.333c-12.8 0-21.333 8.533-21.333 21.333v938.667c0 12.8 8.533 21.333 21.333 21.333h85.333c12.8 0 21.333-8.533 21.333-21.333v-938.667c0-12.8-8.533-21.333-21.333-21.333zM192 0h42.667v896h-42.667v-896zM256 362.667c-8.533 0-17.067 6.4-19.2 14.933-4.267 10.667 2.133 23.467 12.8 27.733l584.533 213.333-584.533 215.467c-10.667 4.267-17.067 17.067-12.8 27.733s17.067 17.067 27.733 12.8l640-234.667c8.533-2.133 14.933-10.667 14.933-19.2s-6.4-17.067-14.933-19.2l-640-234.667c-4.267-4.267-6.4-4.267-8.533-4.267zM341.333 490.667c-8.533 0-17.067 4.267-19.2 12.8-4.267 10.667 2.133 23.467 12.8 27.733l277.333 106.667c10.667 4.267 23.467-2.133 27.733-12.8s-2.133-23.467-12.8-27.733l-277.333-106.667c-4.267 0-6.4 0-8.533 0z" />
<glyph unicode="&#xe92c;" glyph-name="game" d="M778.667 21.333c-53.333 0-104.533 17.067-149.333 51.2-10.667 8.533-25.6 12.8-38.4 12.8h-157.867c-14.933 0-27.733-4.267-38.4-12.8-42.667-32-93.867-51.2-149.333-51.2-70.4 0-136.533 29.867-183.467 81.067s-68.267 121.6-61.867 192c12.8 115.2 104.533 204.8 219.733 215.467 64 6.4 123.733-10.667 172.8-49.067 12.8-8.533 25.6-14.933 40.533-14.933h157.867c14.933 0 27.733 4.267 40.533 14.933 49.067 38.4 108.8 55.467 172.8 49.067 115.2-10.667 206.933-102.4 219.733-215.467 8.533-70.4-14.933-138.667-61.867-192-46.933-51.2-113.067-81.067-183.467-81.067zM433.067 128h157.867c23.467 0 46.933-8.533 66.133-23.467 36.267-27.733 78.933-40.533 123.733-40.533 57.6 0 113.067 25.6 151.467 68.267s57.6 100.267 51.2 157.867c-10.667 93.867-87.467 170.667-181.333 179.2-51.2 4.267-102.4-8.533-142.933-40.533-19.2-14.933-42.667-23.467-66.133-23.467h-157.867c-23.467 0-46.933 8.533-66.133 23.467-40.533 29.867-89.6 44.8-142.933 40.533-93.867-8.533-170.667-85.333-181.333-179.2-6.4-57.6 10.667-115.2 51.2-157.867 38.4-42.667 93.867-68.267 151.467-68.267 44.8 0 87.467 14.933 123.733 40.533 17.067 14.933 38.4 23.467 61.867 23.467zM597.333 426.667c-12.8 0-21.333 8.533-21.333 21.333v42.667c0 23.467-19.2 42.667-42.667 42.667h-42.667c-23.467 0-42.667-19.2-42.667-42.667v-42.667c0-12.8-8.533-21.333-21.333-21.333s-21.333 8.533-21.333 21.333v42.667c0 46.933 38.4 85.333 85.333 85.333h42.667c46.933 0 85.333-38.4 85.333-85.333v-42.667c0-12.8-8.533-21.333-21.333-21.333zM512 533.333c-2.133 0-4.267 0-4.267 0-10.667 2.133-19.2 14.933-14.933 25.6 0 0 12.8 57.6-21.333 98.133-25.6 32-68.267 46.933-130.133 46.933-57.6 0-102.4 14.933-132.267 44.8-36.267 38.4-38.4 89.6-38.4 125.867 0 12.8 10.667 21.333 21.333 21.333 12.8 0 21.333-10.667 21.333-21.333 0-27.733 2.133-68.267 27.733-96 21.333-21.333 55.467-32 100.267-32 74.667 0 130.133-21.333 164.267-61.867 44.8-57.6 29.867-132.267 27.733-134.4-2.133-10.667-10.667-17.067-21.333-17.067zM234.667 149.333c-12.8 0-21.333 8.533-21.333 21.333v170.667c0 12.8 8.533 21.333 21.333 21.333s21.333-8.533 21.333-21.333v-170.667c0-12.8-8.533-21.333-21.333-21.333zM320 234.667h-170.667c-12.8 0-21.333 8.533-21.333 21.333s8.533 21.333 21.333 21.333h170.667c12.8 0 21.333-8.533 21.333-21.333s-8.533-21.333-21.333-21.333zM789.333 320c-12.8 0-21.333 8.533-21.333 21.333v21.333c0 12.8 8.533 21.333 21.333 21.333s21.333-8.533 21.333-21.333v-21.333c0-12.8-8.533-21.333-21.333-21.333zM874.667 256h-21.333c-12.8 0-21.333 8.533-21.333 21.333s8.533 21.333 21.333 21.333h21.333c12.8 0 21.333-8.533 21.333-21.333s-8.533-21.333-21.333-21.333zM789.333 170.667c-12.8 0-21.333 8.533-21.333 21.333v21.333c0 12.8 8.533 21.333 21.333 21.333s21.333-8.533 21.333-21.333v-21.333c0-12.8-8.533-21.333-21.333-21.333zM725.333 256h-21.333c-12.8 0-21.333 8.533-21.333 21.333s8.533 21.333 21.333 21.333h21.333c12.8 0 21.333-8.533 21.333-21.333s-8.533-21.333-21.333-21.333z" />
<glyph unicode="&#xe92d;" glyph-name="html" d="M458.667-42.667h-40.533c-32 0-64 12.8-87.467 36.267s-36.267 53.333-36.267 87.467v249.6c0 46.933-34.133 89.6-81.067 98.133l-6.4 2.133c-8.533-2.133-14.933 6.4-14.933 17.067s6.4 19.2 17.067 19.2l4.267 2.133c46.933 8.533 81.067 51.2 81.067 98.133v247.467c0 68.267 55.467 123.733 121.6 123.733h40.533c10.667 0 21.333-8.533 21.333-21.333s-8.533-21.333-21.333-21.333h-40.533c-44.8 0-81.067-36.267-81.067-81.067v-249.6c0-49.067-25.6-93.867-66.133-119.467 40.533-25.6 66.133-70.4 66.133-119.467v-249.6c0-21.333 8.533-42.667 23.467-57.6s36.267-23.467 57.6-23.467h40.533c10.667 0 21.333-8.533 21.333-21.333 0-8.533-8.533-17.067-19.2-17.067zM620.8-42.667h-40.533c-10.667 0-21.333 8.533-21.333 21.333 0 10.667 8.533 21.333 21.333 21.333h40.533c44.8 0 81.067 36.267 81.067 81.067v243.2c0 49.067 25.6 93.867 66.133 119.467-40.533 25.6-66.133 70.4-66.133 119.467v253.867c0 21.333-8.533 42.667-23.467 57.6s-36.267 23.467-57.6 23.467h-40.533c-10.667 0-21.333 8.533-21.333 21.333s8.533 21.333 21.333 21.333h40.533c32 0 64-12.8 87.467-36.267s36.267-53.333 36.267-87.467v-253.867c0-46.933 32-85.333 76.8-96l10.667-2.133c8.533-2.133 14.933-10.667 14.933-21.333s-8.533-17.067-17.067-19.2c-49.067-8.533-85.333-49.067-85.333-98.133v-243.2c0-70.4-55.467-125.867-123.733-125.867z" />
<glyph unicode="&#xe92e;" glyph-name="image" d="M917.333-21.333h-810.667c-36.267 0-64 27.733-64 64v810.667c0 36.267 27.733 64 64 64h810.667c36.267 0 64-27.733 64-64v-810.667c0-36.267-27.733-64-64-64zM106.667 874.667c-12.8 0-21.333-8.533-21.333-21.333v-810.667c0-12.8 8.533-21.333 21.333-21.333h810.667c12.8 0 21.333 8.533 21.333 21.333v810.667c0 12.8-8.533 21.333-21.333 21.333h-810.667zM384 213.333c-12.8 0-21.333 8.533-21.333 21.333s8.533 21.333 21.333 21.333c53.333 0 128 72.533 206.933 151.467 113.067 108.8 241.067 234.667 373.333 211.2 10.667-2.133 19.2-12.8 17.067-25.6-2.133-10.667-12.8-19.2-25.6-17.067-110.933 19.2-230.4-96-334.933-200.533-87.467-87.467-164.267-162.133-236.8-162.133zM533.333 298.667c-4.267 0-10.667 2.133-12.8 4.267-275.2 232.533-441.6 128-443.733 125.867-10.667-6.4-23.467-4.267-29.867 6.4s-4.267 23.467 6.4 29.867c8.533 4.267 196.267 123.733 494.933-130.133 8.533-8.533 10.667-21.333 2.133-29.867-4.267-4.267-10.667-6.4-17.067-6.4zM661.333 426.667c-12.8 0-21.333 8.533-21.333 21.333 0 70.4-57.6 128-128 128s-128-57.6-128-128c0-12.8-8.533-21.333-21.333-21.333s-21.333 8.533-21.333 21.333c0 93.867 76.8 170.667 170.667 170.667s170.667-76.8 170.667-170.667c0-12.8-8.533-21.333-21.333-21.333zM512 640c-12.8 0-21.333 8.533-21.333 21.333v64c0 12.8 8.533 21.333 21.333 21.333s21.333-8.533 21.333-21.333v-64c0-12.8-8.533-21.333-21.333-21.333zM661.333 576c-6.4 0-10.667 2.133-14.933 6.4-8.533 8.533-8.533 21.333 0 29.867l42.667 42.667c8.533 8.533 21.333 8.533 29.867 0s8.533-21.333 0-29.867l-42.667-42.667c-4.267-4.267-8.533-6.4-14.933-6.4zM362.667 576c-6.4 0-10.667 2.133-14.933 6.4l-42.667 42.667c-8.533 8.533-8.533 21.333 0 29.867s21.333 8.533 29.867 0l42.667-42.667c8.533-8.533 8.533-21.333 0-29.867-4.267-4.267-8.533-6.4-14.933-6.4z" />
<glyph unicode="&#xe92f;" glyph-name="academy" d="M522.667 405.333c-2.133 0-4.267 0-8.533 2.133l-384 149.333c-8.533 2.133-12.8 10.667-12.8 19.2s6.4 17.067 12.8 19.2l384 149.333c4.267 2.133 10.667 2.133 14.933 0l384-149.333c8.533-2.133 12.8-10.667 12.8-19.2s-6.4-17.067-12.8-19.2l-384-149.333c-2.133-2.133-4.267-2.133-6.4-2.133zM198.4 576l324.267-125.867 324.267 125.867-324.267 125.867-324.267-125.867zM853.333 256c-12.8 0-21.333 8.533-21.333 21.333v177.067l-320 102.4c-10.667 4.267-14.933 14.933-10.667 27.733 4.267 10.667 17.067 17.067 27.733 14.933l337.067-106.667c8.533-2.133 10.667-10.667 10.667-21.333v-192c-2.133-14.933-10.667-23.467-23.467-23.467zM522.667 533.333c-36.267 0-64 17.067-64 42.667s27.733 42.667 64 42.667c36.267 0 64-17.067 64-42.667s-27.733-42.667-64-42.667zM864 224c-29.867 0-53.333 23.467-53.333 53.333s23.467 53.333 53.333 53.333c29.867 0 53.333-23.467 53.333-53.333s-23.467-53.333-53.333-53.333zM864 288c-6.4 0-10.667-4.267-10.667-10.667s4.267-10.667 10.667-10.667c6.4 0 10.667 4.267 10.667 10.667s-4.267 10.667-10.667 10.667zM906.667 64c-10.667 0-19.2 6.4-21.333 17.067l-42.667 192c-2.133 10.667 4.267 23.467 17.067 25.6 10.667 2.133 23.467-4.267 25.6-17.067l42.667-192c2.133-10.667-4.267-23.467-17.067-25.6-2.133 0-2.133 0-4.267 0zM800 64c-2.133 0-4.267 0-8.533 2.133-10.667 4.267-17.067 17.067-12.8 27.733l64 170.667c4.267 10.667 8.533 14.933 19.2 12.8s12.8-10.667 12.8-21.333v-170.667c0-12.8-8.533-21.333-21.333-21.333s-21.333 8.533-21.333 21.333v53.333l-17.067-59.733c-4.267-10.667-6.4-14.933-14.933-14.933zM522.667 149.333c-128 0-234.667 21.333-238.933 21.333-10.667 2.133-17.067 10.667-17.067 21.333v149.333c0 59.733 21.333 117.333 57.6 162.133 8.533 8.533 21.333 10.667 29.867 2.133s10.667-21.333 2.133-29.867c-32-38.4-49.067-85.333-49.067-136.533v-132.267c34.133-6.4 119.467-17.067 213.333-17.067s179.2 12.8 213.333 17.067v134.4c0 49.067-17.067 96-46.933 134.4-6.4 8.533-6.4 23.467 2.133 29.867s23.467 6.4 29.867-2.133c36.267-44.8 57.6-102.4 57.6-160v-149.333c0-10.667-6.4-19.2-17.067-21.333-2.133-2.133-108.8-23.467-236.8-23.467zM522.667 554.667c-6.4 0-10.667 2.133-14.933 6.4s-6.4 8.533-6.4 14.933c0 6.4 2.133 10.667 6.4 14.933 8.533 8.533 21.333 8.533 29.867 0 4.267-4.267 6.4-8.533 6.4-14.933s-2.133-10.667-6.4-14.933c-4.267-4.267-8.533-6.4-14.933-6.4z" />
<glyph unicode="&#xe930;" glyph-name="archive" d="M960 682.667h-896c-12.8 0-21.333 8.533-21.333 21.333v192c0 12.8 8.533 21.333 21.333 21.333h896c12.8 0 21.333-8.533 21.333-21.333v-192c0-12.8-8.533-21.333-21.333-21.333zM85.333 725.333h853.333v149.333h-853.333v-149.333zM791.467-21.333h-558.933c-57.6 0-104.533 44.8-106.667 102.4l-19.2 622.933c0 12.8 8.533 21.333 21.333 21.333s21.333-8.533 21.333-21.333l19.2-620.8c0-34.133 29.867-61.867 64-61.867h558.933c34.133 0 61.867 27.733 64 61.867l19.2 620.8c0 12.8 10.667 21.333 21.333 21.333 12.8 0 21.333-10.667 21.333-21.333l-19.2-620.8c-2.133-59.733-49.067-104.533-106.667-104.533zM672 490.667h-320c-40.533 0-74.667 34.133-74.667 74.667s34.133 74.667 74.667 74.667h320c40.533 0 74.667-34.133 74.667-74.667s-34.133-74.667-74.667-74.667zM352 597.333c-17.067 0-32-14.933-32-32s14.933-32 32-32h320c17.067 0 32 14.933 32 32s-14.933 32-32 32h-320z" />
<glyph unicode="&#xe931;" glyph-name="arrow-left" d="M416 42.667c-6.4 0-10.667 2.133-14.933 6.4l-362.667 384c-8.533 8.533-8.533 21.333 0 29.867l362.667 384c8.533 8.533 21.333 8.533 29.867 0s8.533-21.333 0-29.867l-349.867-369.067 349.867-369.067c8.533-8.533 8.533-21.333 0-29.867-4.267-4.267-10.667-6.4-14.933-6.4zM970.667 426.667h-917.333c-12.8 0-21.333 8.533-21.333 21.333s8.533 21.333 21.333 21.333h917.333c12.8 0 21.333-8.533 21.333-21.333s-8.533-21.333-21.333-21.333z" />
<glyph unicode="&#xe932;" glyph-name="arrow-left-circle" d="M512-64c-136.533 0-264.533 53.333-362.667 149.333-200.533 200.533-200.533 524.8 0 723.2 96 96 226.133 149.333 362.667 149.333s264.533-53.333 362.667-149.333c200.533-200.533 200.533-524.8 0-723.2-98.133-96-226.133-149.333-362.667-149.333zM512 917.333c-125.867 0-243.2-49.067-330.667-136.533-183.467-183.467-183.467-480 0-663.467 87.467-87.467 206.933-136.533 330.667-136.533 125.867 0 243.2 49.067 330.667 136.533 183.467 183.467 183.467 480 0 663.467-87.467 87.467-204.8 136.533-330.667 136.533zM642.133 164.267c-6.4 0-10.667 2.133-14.933 6.4l-262.4 262.4c-8.533 8.533-8.533 21.333 0 29.867l262.4 262.4c8.533 8.533 21.333 8.533 29.867 0s8.533-21.333 0-29.867l-245.333-245.333 245.333-245.333c8.533-8.533 8.533-21.333 0-29.867-4.267-8.533-8.533-10.667-14.933-10.667z" />
<glyph unicode="&#xe933;" glyph-name="arrow-right" d="M608 42.667c-4.267 0-10.667 2.133-14.933 6.4-8.533 8.533-8.533 21.333 0 29.867l349.867 369.067-349.867 369.067c-8.533 8.533-8.533 21.333 0 29.867s21.333 8.533 29.867 0l362.667-384c8.533-8.533 8.533-21.333 0-29.867l-362.667-384c-4.267-4.267-8.533-6.4-14.933-6.4zM970.667 426.667h-917.333c-12.8 0-21.333 8.533-21.333 21.333s8.533 21.333 21.333 21.333h917.333c12.8 0 21.333-8.533 21.333-21.333s-8.533-21.333-21.333-21.333z" />
<glyph unicode="&#xe934;" glyph-name="arrow-right-circle" d="M512 960c136.533 0 264.533-53.333 362.667-149.333 200.533-200.533 200.533-524.8 0-723.2-96-96-226.133-149.333-362.667-149.333s-264.533 53.333-362.667 149.333c-200.533 200.533-200.533 524.8 0 723.2 98.133 96 226.133 149.333 362.667 149.333zM512-21.333c125.867 0 243.2 49.067 330.667 136.533 183.467 183.467 183.467 480 0 663.467-87.467 87.467-206.933 136.533-330.667 136.533-125.867 0-243.2-49.067-330.667-136.533-183.467-183.467-183.467-480 0-663.467 87.467-87.467 204.8-136.533 330.667-136.533zM381.867 731.733c6.4 0 10.667-2.133 14.933-6.4l262.4-262.4c8.533-8.533 8.533-21.333 0-29.867l-262.4-262.4c-8.533-8.533-21.333-8.533-29.867 0s-8.533 21.333 0 29.867l245.333 245.333-245.333 245.333c-8.533 8.533-8.533 21.333 0 29.867 2.133 8.533 8.533 10.667 14.933 10.667z" />
<glyph unicode="&#xe935;" glyph-name="building" d="M1012.87 292.174c0 4.452 0 6.678 0 11.13 0 24.487-8.904 48.974-26.713 66.783 2.226 6.678 4.452 15.583 4.452 22.261 0 24.487-11.13 44.522-28.939 60.104 4.452 8.904 6.678 20.035 6.678 28.939 0 42.296-35.617 77.913-77.913 77.913-4.452 0-6.678 0-11.13-2.226v313.878c0 11.13-6.678 20.035-17.809 22.261l-267.13 66.783c-8.904 2.226-17.809 0-22.261-6.678l-178.087-222.609c-2.226-4.452-4.452-8.904-4.452-13.357v-111.304c0-6.678 0-15.583 0-22.261l-151.374 22.261c0 0-2.226 0-2.226 0s0 0 0 0 0 0 0 0c-2.226 0-4.452 0-6.678-2.226 0 0 0 0 0 0-2.226 0-4.452-2.226-4.452-4.452 0 0 0 0-2.226-2.226 0 0 0 0 0 0l-133.565-153.6c-4.452-4.452-4.452-8.904-4.452-15.583v-447.443h-44.522c-13.357 0-22.261-8.904-22.261-22.261s8.904-22.261 22.261-22.261h957.217c13.357 0 22.261 8.904 22.261 22.261s-8.904 22.261-22.261 22.261h-89.043v89.043c4.452 0 6.678 0 11.13 0 55.652 0 100.174 44.522 100.174 100.174 0 20.035-6.678 40.070-17.809 55.652 11.13 15.583 17.809 35.617 17.809 55.652-6.678 4.452-6.678 6.678-6.678 11.13zM211.478 40.626c-8.904 17.809-15.583 35.617-22.261 53.426v398.47c0 0 0 2.226 0 2.226l22.261 26.713v-480.835zM256 554.852l133.565-20.035c0-4.452 0-11.13 0-15.583v-538.713h-133.565v574.33zM434.087 247.652c42.296-138.017 104.626-227.061 140.243-267.13h-140.243v267.13zM498.643 788.591l24.487 28.939v-674.504c-8.904 15.583-15.583 33.391-24.487 53.426 0 2.226 2.226 4.452 2.226 6.678v578.783c0 2.226 0 4.452-2.226 6.678zM589.913 902.122v-870.4c-6.678 8.904-15.583 20.035-22.261 33.391 0 2.226 0 2.226 0 4.452v801.391c0 0 0 2.226 0 2.226l22.261 28.939zM456.348 735.165v-396.243c-11.13 53.426-20.035 115.757-22.261 182.539v184.765l22.261 28.939zM144.696 445.774v-186.991c-15.583 77.913-22.261 140.243-22.261 146.922v15.583l22.261 24.487zM122.435 156.383c17.809-62.33 40.070-124.661 69.009-175.861h-69.009v175.861zM857.043-19.478h-222.609v923.826l200.348-51.2v-316.104c0 0 0 0 0 0-13.357-13.357-22.261-33.391-22.261-55.652 0-4.452 0-8.904 0-11.13-37.843-4.452-66.783-37.843-66.783-77.913 0-15.583 4.452-28.939 11.13-42.296-8.904-15.583-11.13-31.165-11.13-46.748 0-13.357 2.226-26.713 8.904-40.070-20.035-17.809-31.165-44.522-31.165-71.235 0-55.652 44.522-100.174 100.174-100.174 8.904 0 15.583 0 22.261 2.226 2.226-2.226 6.678-4.452 11.13-6.678v-106.852zM968.348 287.722c0-2.226 0-4.452 0-6.678 0-15.583-6.678-28.939-17.809-40.070-4.452-4.452-6.678-8.904-6.678-15.583s2.226-11.13 6.678-15.583c11.13-11.13 17.809-24.487 17.809-40.070 0-31.165-24.487-55.652-55.652-55.652-15.583 0-31.165 6.678-42.296 20.035-4.452 4.452-11.13 8.904-17.809 8.904-2.226 0-6.678 0-8.904-2.226-6.678-2.226-13.357-4.452-20.035-4.452-31.165 0-55.652 24.487-55.652 55.652 0 20.035 8.904 37.843 26.713 46.748 4.452 2.226 8.904 8.904 11.13 15.583s0 13.357-4.452 17.809c-6.678 8.904-11.13 20.035-11.13 31.165 0 15.583 6.678 26.713 13.357 35.617s6.678 22.261-2.226 31.165c-6.678 6.678-11.13 15.583-11.13 24.487 0 17.809 15.583 33.391 33.391 33.391 11.13 0 20.035-4.452 26.713-13.357 4.452-6.678 11.13-8.904 17.809-8.904v0c6.678 0 13.357 4.452 17.809 8.904 0 0 2.226 2.226 2.226 2.226 4.452 4.452 6.678 13.357 4.452 20.035s-6.678 13.357-13.357 15.583c-13.357 4.452-22.261 17.809-22.261 31.165 0 17.809 15.583 33.391 33.391 33.391s33.391-15.583 33.391-33.391c0-11.13-4.452-17.809-8.904-22.261s-6.678-13.357-4.452-20.035c2.226-6.678 6.678-13.357 13.357-15.583 13.357-4.452 22.261-17.809 22.261-31.165 0-6.678-2.226-11.13-4.452-17.809-6.678-8.904-2.226-22.261 4.452-28.939 13.357-11.13 22.261-26.713 22.261-44.522 0-2.226 0-4.452 0-8.904-2.226-2.226 0-4.452 0-6.678zM863.722 225.391c-2.226 0-6.678 2.226-6.678 4.452-2.226 2.226 0 8.904 0 11.13 4.452 11.13-2.226 24.487-13.357 28.939s-24.487-2.226-28.939-13.357c0-2.226-8.904-26.713 2.226-46.748 4.452-8.904 15.583-20.035 35.617-26.713 2.226 0 4.452 0 6.678 0 8.904 0 17.809 6.678 22.261 15.583 0 11.13-6.678 22.261-17.809 26.713zM883.757 358.957c-11.13 2.226-24.487-4.452-28.939-15.583-2.226-11.13 2.226-24.487 15.583-26.713 0 0 4.452-2.226 11.13-13.357 4.452-6.678 11.13-11.13 20.035-11.13 4.452 0 6.678 0 11.13 2.226 11.13 6.678 13.357 20.035 8.904 31.165-15.583 26.713-31.165 31.165-37.843 33.391z" />
<glyph unicode="&#xe936;" glyph-name="campaigns" d="M426.667 138.667c-4.267 0-6.4 0-10.667 2.133-6.4 4.267-10.667 10.667-10.667 19.2v277.333c0 8.533 4.267 14.933 10.667 19.2s14.933 2.133 21.333-2.133l192-138.667c6.4-4.267 8.533-10.667 8.533-17.067s-4.267-12.8-8.533-17.067l-192-138.667c-2.133-2.133-6.4-4.267-10.667-4.267zM448 394.667v-194.133l134.4 96-134.4 98.133zM795.733-21.333h-565.333c-32 0-59.733 23.467-64 55.467l-72.533 512c-2.133 19.2 2.133 36.267 14.933 51.2s29.867 21.333 49.067 21.333h712.533c19.2 0 36.267-8.533 49.067-21.333 12.8-14.933 17.067-32 14.933-51.2l-72.533-512c-8.533-32-36.267-55.467-66.133-55.467zM155.733 576c-6.4 0-12.8-2.133-17.067-6.4s-6.4-10.667-4.267-17.067l72.533-512c2.133-10.667 10.667-19.2 21.333-19.2h565.333c10.667 0 19.2 8.533 21.333 19.2l72.533 512c0 6.4 0 12.8-4.267 17.067s-10.667 6.4-17.067 6.4h-710.4zM853.333 661.333h-682.667c-12.8 0-21.333 8.533-21.333 21.333s8.533 21.333 21.333 21.333h682.667c12.8 0 21.333-8.533 21.333-21.333s-8.533-21.333-21.333-21.333zM789.333 746.667h-554.667c-12.8 0-21.333 8.533-21.333 21.333s8.533 21.333 21.333 21.333h554.667c12.8 0 21.333-8.533 21.333-21.333s-8.533-21.333-21.333-21.333zM704 832h-384c-12.8 0-21.333 8.533-21.333 21.333s8.533 21.333 21.333 21.333h384c12.8 0 21.333-8.533 21.333-21.333s-8.533-21.333-21.333-21.333z" />
<glyph unicode="&#xe937;" glyph-name="chart" d="M960-21.333h-874.667c-23.467 0-42.667 19.2-42.667 42.667v874.667c0 12.8 8.533 21.333 21.333 21.333s21.333-8.533 21.333-21.333v-874.667h874.667c12.8 0 21.333-8.533 21.333-21.333s-8.533-21.333-21.333-21.333zM234.667 64h-42.667c-23.467 0-42.667 19.2-42.667 42.667v490.667c0 23.467 19.2 42.667 42.667 42.667h42.667c23.467 0 42.667-19.2 42.667-42.667v-490.667c0-23.467-19.2-42.667-42.667-42.667zM192 597.333v-490.667h42.667v490.667h-42.667zM426.667 64h-42.667c-23.467 0-42.667 19.2-42.667 42.667v277.333c0 23.467 19.2 42.667 42.667 42.667h42.667c23.467 0 42.667-19.2 42.667-42.667v-277.333c0-23.467-19.2-42.667-42.667-42.667zM384 384v-277.333h42.667v277.333h-42.667zM618.667 64h-42.667c-23.467 0-42.667 19.2-42.667 42.667v704c0 23.467 19.2 42.667 42.667 42.667h42.667c23.467 0 42.667-19.2 42.667-42.667v-704c0-23.467-19.2-42.667-42.667-42.667zM576 810.667v-704h42.667v704h-42.667zM810.667 64h-42.667c-23.467 0-42.667 19.2-42.667 42.667v128c0 23.467 19.2 42.667 42.667 42.667h42.667c23.467 0 42.667-19.2 42.667-42.667v-128c0-23.467-19.2-42.667-42.667-42.667zM768 234.667v-128h42.667v128h-42.667z" />
<glyph unicode="&#xe938;" glyph-name="clock" d="M522.667-32c-264.533 0-480 215.467-480 480s215.467 480 480 480c264.533 0 480-215.467 480-480s-215.467-480-480-480zM522.667 885.333c-241.067 0-437.333-196.267-437.333-437.333s196.267-437.333 437.333-437.333c241.067 0 437.333 196.267 437.333 437.333s-196.267 437.333-437.333 437.333zM522.667 810.667c-6.4 0-10.667 2.133-14.933 6.4s-6.4 8.533-6.4 14.933c0 6.4 2.133 10.667 6.4 14.933 8.533 8.533 21.333 8.533 29.867 0 4.267-4.267 6.4-10.667 6.4-14.933 0-6.4-2.133-10.667-6.4-14.933s-8.533-6.4-14.933-6.4zM522.667 42.667c-6.4 0-10.667 2.133-14.933 6.4s-6.4 10.667-6.4 14.933 2.133 10.667 6.4 14.933c8.533 8.533 21.333 8.533 29.867 0 4.267-4.267 6.4-8.533 6.4-14.933s-2.133-10.667-6.4-14.933c-4.267-4.267-8.533-6.4-14.933-6.4zM906.667 426.667c-6.4 0-10.667 2.133-14.933 6.4s-6.4 10.667-6.4 14.933 2.133 10.667 6.4 14.933c8.533 8.533 21.333 8.533 29.867 0 4.267-4.267 6.4-10.667 6.4-14.933s-2.133-10.667-6.4-14.933c-4.267-4.267-8.533-6.4-14.933-6.4zM138.667 426.667c-6.4 0-10.667 2.133-14.933 6.4s-6.4 10.667-6.4 14.933 2.133 10.667 6.4 14.933c8.533 8.533 21.333 8.533 29.867 0 4.267-4.267 6.4-10.667 6.4-14.933s-2.133-10.667-6.4-14.933c-4.267-4.267-8.533-6.4-14.933-6.4zM793.6 697.6c-6.4 0-10.667 2.133-14.933 6.4s-6.4 8.533-6.4 14.933c0 6.4 2.133 10.667 6.4 14.933 8.533 8.533 21.333 8.533 29.867 0 4.267-4.267 6.4-10.667 6.4-14.933 0-6.4-2.133-10.667-6.4-14.933s-8.533-6.4-14.933-6.4zM251.733 155.733c-6.4 0-10.667 2.133-14.933 6.4s-6.4 8.533-6.4 14.933c0 6.4 2.133 10.667 6.4 14.933 8.533 8.533 21.333 8.533 29.867 0 4.267-4.267 6.4-8.533 6.4-14.933s-2.133-10.667-6.4-14.933c-4.267-4.267-10.667-6.4-14.933-6.4zM793.6 155.733c-6.4 0-10.667 2.133-14.933 6.4s-6.4 8.533-6.4 14.933c0 6.4 2.133 10.667 6.4 14.933 8.533 8.533 21.333 8.533 29.867 0 4.267-4.267 6.4-10.667 6.4-14.933 0-6.4-2.133-10.667-6.4-14.933s-8.533-6.4-14.933-6.4zM251.733 697.6c-6.4 0-10.667 2.133-14.933 6.4s-6.4 8.533-6.4 14.933c0 6.4 2.133 10.667 6.4 14.933 8.533 8.533 21.333 8.533 29.867 0 4.267-4.267 6.4-10.667 6.4-14.933 0-6.4-2.133-10.667-6.4-14.933s-10.667-6.4-14.933-6.4zM736 213.333c-6.4 0-10.667 2.133-14.933 6.4l-219.733 213.333c-4.267 4.267-10.667 8.533-10.667 14.933v213.333c0 12.8 8.533 21.333 21.333 21.333s21.333-8.533 21.333-21.333v-204.8l213.333-206.933c8.533-8.533 10.667-21.333 2.133-29.867-4.267-4.267-6.4-6.4-12.8-6.4z" />
<glyph unicode="&#xe939;" glyph-name="coaching-sales" d="M908.243 570.435c-2.226 207.026-169.183 362.852-389.565 362.852s-387.339-155.826-389.565-362.852c-69.009-4.452-122.435-60.104-122.435-129.113v-46.748c0-71.235 57.878-129.113 129.113-129.113h6.678c35.617 0 64.557 28.939 64.557 64.557v178.087c0 24.487-15.583 46.748-35.617 57.878 0 0 0 2.226 0 2.226 0 184.765 149.148 325.009 345.043 325.009s345.043-138.017 345.043-320.557c-28.939-6.678-51.2-33.391-51.2-62.33v-178.087c0-22.261 11.13-42.296 28.939-53.426-2.226-62.33-13.357-144.696-69.009-191.443-37.843-33.391-95.722-44.522-169.183-37.843 0 0 0 2.226 0 2.226 0 46.748-37.843 86.817-86.817 86.817-46.748 0-86.817-37.843-86.817-86.817 0-46.748 37.843-86.817 86.817-86.817 31.165 0 57.878 17.809 73.461 42.296 17.809-2.226 33.391-2.226 48.974-2.226 66.783 0 120.209 17.809 160.278 51.2 64.557 55.652 80.139 144.696 82.365 213.704v0c71.235 0 129.113 57.878 129.113 129.113v46.748c6.678 60.104-40.070 113.53-100.174 124.661zM166.957 330.017c0-11.13-8.904-22.261-22.261-22.261h-6.678c-46.748 0-86.817 37.843-86.817 86.817v46.748c0 46.748 37.843 86.817 86.817 86.817h6.678c11.13 0 22.261-8.904 22.261-22.261v-175.861zM518.678 5.009c-24.487 0-42.296 20.035-42.296 42.296 0 24.487 20.035 42.296 42.296 42.296 24.487 0 42.296-20.035 42.296-42.296 2.226-22.261-17.809-42.296-42.296-42.296zM972.8 394.574c0-46.748-37.843-86.817-86.817-86.817h-6.678c-11.13 0-22.261 8.904-22.261 22.261v178.087c0 11.13 8.904 22.261 22.261 22.261h6.678c46.748 0 86.817-37.843 86.817-86.817v-48.974z" />
<glyph unicode="&#xe93a;" glyph-name="contacts" d="M505.6 309.333c-96 0-153.6 115.2-164.267 149.333-4.267 4.267-10.667 8.533-14.933 17.067-17.067 29.867-21.333 57.6-12.8 78.933 4.267 10.667 10.667 19.2 17.067 23.467 0 17.067 2.133 46.933 8.533 74.667 10.667 38.4 59.733 113.067 168.533 113.067s157.867-74.667 168.533-113.067c8.533-27.733 8.533-57.6 8.533-74.667 6.4-4.267 10.667-10.667 14.933-19.2 8.533-21.333 4.267-49.067-12.8-83.2-4.267-8.533-10.667-14.933-14.933-17.067-14.933-36.267-72.533-149.333-166.4-149.333zM358.4 548.267c0 0-4.267-2.133-6.4-8.533-2.133-10.667 0-25.6 10.667-42.667 6.4-4.267 12.8-8.533 17.067-19.2v-2.133c6.4-25.6 57.6-121.6 123.733-121.6 68.267 0 117.333 96 123.733 121.6 2.133 10.667 10.667 14.933 14.933 17.067 2.133 2.133 2.133 2.133 2.133 2.133 14.933 27.733 12.8 42.667 10.667 46.933s-4.267 6.4-4.267 6.4c-8.533 2.133-14.933 10.667-14.933 21.333 0 0 2.133 38.4-6.4 74.667 0 2.133-23.467 81.067-125.867 81.067s-125.867-78.933-125.867-81.067c-8.533-34.133-6.4-72.533-6.4-74.667 0-10.667-4.267-19.2-12.8-21.333v0zM789.333 0h-550.4c-17.067 0-32 6.4-44.8 19.2-12.8 14.933-21.333 34.133-19.2 53.333 4.267 89.6 27.733 198.4 155.733 247.467 53.333 19.2 81.067 46.933 83.2 46.933 8.533 8.533 21.333 8.533 29.867 0s8.533-21.333 0-29.867c-2.133-2.133-34.133-34.133-96-57.6-83.2-32-121.6-93.867-128-209.067 0-8.533 2.133-17.067 8.533-21.333 2.133-2.133 6.4-6.4 12.8-6.4h550.4c6.4 0 10.667 4.267 12.8 6.4 6.4 6.4 8.533 12.8 8.533 21.333-6.4 117.333-46.933 183.467-128 213.333-61.867 23.467-96 53.333-98.133 55.467-8.533 8.533-10.667 21.333-2.133 29.867s21.333 10.667 29.867 2.133c0 0 32-27.733 85.333-46.933 128-49.067 149.333-166.4 155.733-251.733 2.133-19.2-6.4-38.4-19.2-53.333-14.933-12.8-32-19.2-46.933-19.2zM213.333 149.333h-125.867c-34.133 0-64 32-64 68.267 0 70.4-2.133 166.4 113.067 209.067 32 12.8 59.733 27.733 81.067 38.4-34.133 32-61.867 76.8-70.4 98.133-4.267 4.267-10.667 8.533-14.933 17.067-17.067 29.867-21.333 57.6-12.8 78.933 4.267 10.667 10.667 19.2 17.067 23.467 0 17.067 2.133 46.933 8.533 74.667 10.667 38.4 59.733 113.067 168.533 113.067s157.867-76.8 168.533-119.467c2.133-10.667-4.267-23.467-14.933-25.6s-23.467 4.267-25.6 14.933c0 4.267-23.467 85.333-125.867 85.333s-125.867-78.933-125.867-81.067c-8.533-34.133-6.4-74.667-6.4-74.667 0-8.533-4.267-17.067-12.8-21.333v0c0 0-4.267-2.133-6.4-8.533-2.133-10.667 0-25.6 10.667-42.667 0 0 2.133 0 2.133-2.133 4.267-2.133 10.667-6.4 14.933-17.067v-2.133c4.267-14.933 42.667-76.8 78.933-98.133 6.4-4.267 10.667-10.667 10.667-17.067s-4.267-14.933-8.533-19.2c-2.133-2.133-53.333-36.267-115.2-57.6-83.2-32-87.467-87.467-87.467-168.533 0-12.8 10.667-25.6 21.333-25.6h125.867c12.8 0 21.333-8.533 21.333-21.333s-12.8-19.2-25.6-19.2zM928 149.333h-117.333c-12.8 0-21.333 8.533-21.333 21.333s8.533 21.333 21.333 21.333h117.333c10.667 0 21.333 12.8 21.333 25.6 2.133 81.067-4.267 138.667-87.467 168.533-59.733 23.467-113.067 59.733-115.2 61.867-6.4 4.267-8.533 12.8-8.533 19.2 0 8.533 6.4 14.933 12.8 17.067 36.267 17.067 72.533 81.067 76.8 93.867v2.133c4.267 10.667 10.667 14.933 14.933 17.067 0 0 2.133 0 2.133 2.133 10.667 19.2 12.8 34.133 10.667 42.667-2.133 6.4-6.4 8.533-6.4 8.533-8.533 4.267-12.8 12.8-12.8 21.333 0 0 2.133 38.4-6.4 74.667 0 2.133-23.467 81.067-125.867 81.067s-121.6-83.2-123.733-85.333c-2.133-10.667-14.933-19.2-25.6-14.933-10.667 2.133-19.2 14.933-17.067 25.6 8.533 40.533 55.467 119.467 164.267 119.467s157.867-74.667 168.533-113.067c8.533-29.867 8.533-59.733 8.533-74.667 6.4-4.267 12.8-12.8 17.067-23.467 8.533-21.333 4.267-49.067-12.8-78.933-4.267-8.533-10.667-14.933-14.933-17.067-8.533-19.2-34.133-68.267-68.267-98.133 19.2-12.8 49.067-27.733 78.933-38.4 117.333-44.8 115.2-140.8 113.067-209.067 0-38.4-29.867-70.4-64-70.4z" />
<glyph unicode="&#xe93b;" glyph-name="delete" d="M512 85.333c-12.8 0-21.333 8.533-21.333 21.333v554.667c0 12.8 8.533 21.333 21.333 21.333s21.333-8.533 21.333-21.333v-554.667c0-12.8-8.533-21.333-21.333-21.333zM394.667 85.333c-10.667 0-21.333 8.533-21.333 19.2l-42.667 554.667c0 12.8 8.533 21.333 19.2 23.467 12.8 0 21.333-8.533 23.467-19.2l42.667-554.667c0-12.8-8.533-23.467-21.333-23.467 2.133 0 0 0 0 0zM650.667 85.333c0 0-2.133 0 0 0-12.8 0-21.333 10.667-21.333 23.467l42.667 554.667c0 12.8 10.667 21.333 23.467 19.2 12.8 0 21.333-10.667 19.2-23.467l-42.667-554.667c0-10.667-10.667-19.2-21.333-19.2zM721.067-42.667h-396.8c-44.8 0-81.067 32-85.333 76.8l-78.933 753.067c-2.133 10.667 6.4 21.333 19.2 23.467 10.667 2.133 21.333-6.4 23.467-19.2l78.933-753.067c2.133-21.333 21.333-38.4 42.667-38.4h396.8c21.333 0 40.533 17.067 42.667 38.4l78.933 753.067c2.133 10.667 10.667 19.2 23.467 19.2 10.667-2.133 19.2-10.667 19.2-23.467l-78.933-753.067c-4.267-44.8-40.533-76.8-85.333-76.8zM906.667 768h-768c-12.8 0-21.333 8.533-21.333 21.333s8.533 21.333 21.333 21.333h768c12.8 0 21.333-8.533 21.333-21.333s-8.533-21.333-21.333-21.333zM682.667 789.333c-12.8 0-21.333 8.533-21.333 21.333v42.667c0 12.8 2.133 21.333-10.667 21.333h-256c-12.8 0-32-8.533-32-21.333v-42.667c0-12.8-8.533-21.333-21.333-21.333s-21.333 8.533-21.333 21.333v42.667c0 36.267 38.4 64 74.667 64h256c36.267 0 53.333-27.733 53.333-64v-42.667c0-12.8-8.533-21.333-21.333-21.333z" />
<glyph unicode="&#xe93c;" glyph-name="document-paste" d="M874.667 64h-576c-36.267 0-64 27.733-64 64v746.667c0 36.267 27.733 64 64 64h362.667c6.4 0 10.667-2.133 14.933-6.4l256-256c4.267-4.267 6.4-8.533 6.4-14.933v-533.333c0-36.267-27.733-64-64-64zM298.667 896c-12.8 0-21.333-8.533-21.333-21.333v-746.667c0-12.8 8.533-21.333 21.333-21.333h576c12.8 0 21.333 8.533 21.333 21.333v524.8l-243.2 243.2h-354.133zM917.333 640h-256c-12.8 0-21.333 8.533-21.333 21.333v234.667h42.667v-213.333h234.667v-42.667zM768-42.667h-576c-36.267 0-64 27.733-64 64v746.667c0 36.267 27.733 64 64 64h64v-42.667h-64c-12.8 0-21.333-8.533-21.333-21.333v-746.667c0-12.8 8.533-21.333 21.333-21.333h576c12.8 0 21.333 8.533 21.333 21.333v64h42.667v-64c0-36.267-27.733-64-64-64z" />
<glyph unicode="&#xe93d;" glyph-name="drag-drop" d="M480.835 234.296c-8.904 6.678-22.261 6.678-31.165-2.226-6.678-8.904-6.678-22.261 2.226-31.165l109.078-91.27h-77.913c-129.113 0-233.739 104.626-233.739 233.739v351.722c0 0 0 2.226 0 2.226 48.974 8.904 86.817 53.426 86.817 106.852 0 60.104-48.974 109.078-109.078 109.078-57.878-2.226-106.852-51.2-106.852-109.078 0-53.426 37.843-95.722 86.817-106.852 0 0 0-2.226 0-2.226v-351.722c0-153.6 124.661-278.261 278.261-278.261h77.913l-109.078-91.27c-8.904-6.678-11.13-22.261-2.226-31.165 4.452-4.452 11.13-6.678 15.583-6.678s8.904 2.226 13.357 4.452l153.6 129.113c4.452 4.452 6.678 11.13 6.678 15.583s-2.226 13.357-6.678 15.583l-153.6 133.565zM164.73 804.174c0 35.617 28.939 64.557 64.557 64.557s64.557-28.939 64.557-64.557-28.939-66.783-64.557-66.783-64.557 28.939-64.557 66.783zM816.974 194.226v89.043h-42.296v-89.043c-48.974-11.13-86.817-53.426-86.817-106.852 0-60.104 48.974-109.078 109.078-109.078s109.078 48.974 109.078 109.078c-2.226 53.426-40.070 95.722-89.043 106.852zM794.713 22.817c-35.617 0-64.557 28.939-64.557 64.557s28.939 64.557 64.557 64.557 64.557-28.939 64.557-64.557-28.939-64.557-64.557-64.557zM772.452 543.722h42.296v4.452c0 28.939-4.452 60.104-13.357 86.817l-40.070-13.357c8.904-24.487 11.13-48.974 11.13-73.461v-4.452zM772.452 456.904h42.296v-86.817h-42.296v86.817zM512 824.209v-42.296h26.713c17.809 0 35.617-2.226 53.426-6.678l8.904 42.296c-20.035 4.452-42.296 6.678-64.557 6.678h-24.487zM723.478 690.643l33.391 26.713c-20.035 24.487-42.296 46.748-69.009 62.33l-24.487-35.617c24.487-13.357 44.522-31.165 60.104-53.426zM543.165 657.252c4.452-4.452 8.904-4.452 13.357-4.452 6.678 0 11.13 2.226 15.583 6.678 6.678 8.904 6.678 22.261-2.226 31.165l-133.565 113.53 133.565 113.53c8.904 6.678 11.13 22.261 2.226 31.165-6.678 8.904-22.261 11.13-31.165 2.226l-153.6-129.113c-4.452-4.452-6.678-11.13-6.678-15.583 0-6.678 2.226-13.357 6.678-15.583l155.826-133.565z" />
<glyph unicode="&#xe93e;" glyph-name="duplicate" d="M650.667-51.2h-512c-46.933 0-85.333 38.4-85.333 85.333v661.333c0 46.933 38.4 85.333 85.333 85.333h384c6.4 0 12.8-2.133 14.933-6.4l192-213.333c4.267-4.267 6.4-8.533 6.4-14.933v-512c0-46.933-38.4-85.333-85.333-85.333zM138.667 738.133c-23.467 0-42.667-19.2-42.667-42.667v-661.333c0-23.467 19.2-42.667 42.667-42.667h512c23.467 0 42.667 19.2 42.667 42.667v503.467l-179.2 200.533h-375.467zM714.667 524.8h-128c-46.933 0-85.333 38.4-85.333 85.333v149.333c0 12.8 8.533 21.333 21.333 21.333s21.333-8.533 21.333-21.333v-149.333c0-23.467 19.2-42.667 42.667-42.667h128c12.8 0 21.333-8.533 21.333-21.333s-8.533-21.333-21.333-21.333zM906.667 98.133h-170.667c-12.8 0-21.333 8.533-21.333 21.333s8.533 21.333 21.333 21.333h170.667c23.467 0 42.667 19.2 42.667 42.667v503.467l-179.2 200.533h-375.467c-23.467 0-42.667-19.2-42.667-42.667v-85.333c0-12.8-8.533-21.333-21.333-21.333s-21.333 8.533-21.333 21.333v85.333c0 46.933 38.4 85.333 85.333 85.333h384c6.4 0 12.8-2.133 14.933-6.4l192-213.333c4.267-4.267 6.4-8.533 6.4-14.933v-512c0-46.933-38.4-85.333-85.333-85.333zM970.667 674.133h-128c-46.933 0-85.333 38.4-85.333 85.333v149.333c0 12.8 8.533 21.333 21.333 21.333s21.333-8.533 21.333-21.333v-149.333c0-23.467 19.2-42.667 42.667-42.667h128c12.8 0 21.333-8.533 21.333-21.333s-8.533-21.333-21.333-21.333zM390.4 42.667c-115.2 0-209.067 93.867-209.067 209.067s93.867 209.067 209.067 209.067c115.2 0 209.067-93.867 209.067-209.067 2.133-115.2-91.733-209.067-209.067-209.067zM390.4 424.533c-93.867 0-170.667-76.8-170.667-170.667s76.8-170.667 170.667-170.667c93.867 0 170.667 76.8 170.667 170.667 2.133 93.867-74.667 170.667-170.667 170.667zM384 138.667c-10.667 0-21.333 8.533-21.333 19.2v189.867c0 10.667 10.667 19.2 21.333 19.2s21.333-8.533 21.333-19.2v-189.867c0-10.667-10.667-19.2-21.333-19.2zM486.4 234.667h-189.867c-10.667 0-19.2 10.667-19.2 21.333s8.533 21.333 19.2 21.333h189.867c10.667 0 19.2-10.667 19.2-21.333s-8.533-21.333-19.2-21.333z" />
</font>
</defs>
</svg>
